Райский город / Paradise City (Чак Рассел) [2022, боевик, триллер, WEB-DLRip] MVO (TVShows)

 

Post 24-Nov-2022 09:32

--Райский город / Paradise City-- Год выпуска: 2022
Страна: США / «308 Ent, Arcana Studio, BondIt, …»
Жанр: боевик, триллер
Продолжительность: 01:32:59
Перевод: Многоголосый профессиональный [TVShows]
Режиссер: Чак Рассел
В ролях: Блейк Дженнер, Джон Траволта, Брюс Уиллис, Прая Лундберг, Кори Лардж, Стивен Дорфф, Эмбер Абара, Кейт Кацман, Брэнскомб Ричмонд, Лоренцо Антонуччи, …-Описание: Наемный убийца Райан Свон проникнет в криминальный мир Гавайских островов, чтобы отомстить главарю банды, который убил его отца.- -Качество видео: WEB-DLRip
Формат видео: AVI
Видеокодек: XviD
Аудиокодек: AC3
Видео: 720x304 (2.35:1), 23.976 fps, XviD MPEG-4, ~1665 kbps avg
Аудио #1: [RUS] 48.0 kHz, AC3 DD, 2.0 (L,R) ch, ~192.00 kbps avg
Аудио #2: [ENG] 48.0 kHz, AC3 DD, 5.1 (L,C,R,l,r) + LFE ch, ~384.00 kbps avg
Cубтитры: нет
-

MediaInfo:

General
Complete name                            : D:\Rajskij.gorod.2022.WEB-DLRip.avi
Format                                   : AVI
Format/Info                              : Audio Video Interleave
File size                                : 1.46 GiB
Duration                                 : 1 h 32 min
Overall bit rate                         : 2 255 kb/s
Movie name                               : Райский город / Paradise City (2022) WEB-DLRip
Director                                 : Чак Рассел / Chuck Russell
Genre                                    : боевик, триллер
Writing application                      : VirtualDubMod 1.5.10.2 (build 2542/release)
Original source form/Name                : Художественный фильм
Copyright                                : США / 308 Ent, Arcana Studio, BondIt, Buffalo 8 Productions, Exchange, Grandave Capital
Comment                                  : Rip by vitolinform
Video
ID                                       : 0
Format                                   : MPEG-4 Visual
Format profile                           : Advanced [email protected]
Format settings                          : BVOP1 / Custom Matrix
Format settings, BVOP                    : 1
Format settings, QPel                    : No
Format settings, GMC                     : No warppoints
Format settings, Matrix                  : Custom
Codec ID                                 : XVID
Codec ID/Hint                            : XviD
Duration                                 : 1 h 32 min
Bit rate                                 : 1 665 kb/s
Width                                    : 720 pixels
Height                                   : 304 pixels
Display aspect ratio                     : 2.35:1
Frame rate                               : 23.976 (24000/1001) FPS
Color space                              : YUV
Chroma subsampling                       : 4:2:0
Bit depth                                : 8 bits
Scan type                                : Progressive
Compression mode                         : Lossy
Bits/(Pixel*Frame)                       : 0.317
Stream size                              : 1.08 GiB (74%)
Writing library                          : XviD 69
Audio #1
ID                                       : 1
Format                                   : AC-3
Format/Info                              : Audio Coding 3
Commercial name                          : Dolby Digital
Codec ID                                 : 2000
Duration                                 : 1 h 32 min
Bit rate mode                            : Constant
Bit rate                                 : 192 kb/s
Channel(s)                               : 2 channels
Channel layout                           : L R
Sampling rate                            : 48.0 kHz
Frame rate                               : 31.250 FPS (1536 SPF)
Compression mode                         : Lossy
Stream size                              : 128 MiB (9%)
Alignment                                : Split across interleaves
Interleave, duration                     : 42  ms (1.00 video frame)
Interleave, preload duration             : 500  ms
Title                                    : Russian (MVO, TVShows)
Service kind                             : Complete Main
Audio #2
ID                                       : 2
Format                                   : AC-3
Format/Info                              : Audio Coding 3
Commercial name                          : Dolby Digital
Codec ID                                 : 2000
Duration                                 : 1 h 32 min
Bit rate mode                            : Constant
Bit rate                                 : 384 kb/s
Channel(s)                               : 6 channels
Channel layout                           : L R C LFE Ls Rs
Sampling rate                            : 48.0 kHz
Frame rate                               : 31.250 FPS (1536 SPF)
Compression mode                         : Lossy
Stream size                              : 255 MiB (17%)
Alignment                                : Split across interleaves
Interleave, duration                     : 42  ms (1.00 video frame)
Interleave, preload duration             : 500  ms
Title                                    : English
Service kind                             : Complete Main
-

Скриншоты:

-
Яндекс.Метрика