Сад (Владимир Алеников) [1973, Поэтическая баллада, короткометражный, VHSRip]

 

Post 22-Nov-2022 21:10

Сад Студия: СССР, Литфильм
Жанр: Поэтическая баллада, короткометражный
Год выпуска: 1973
Продолжительность: 00:44:32
Режиссёр: Владимир Алеников
В ролях: Рамзес Джабраилов, Наталья Лебле, Владислав Дворжецкий, Алевтина Евдокимова, Евгений Жариков, Елена Соловей, Владимир Довейко, Анна Коломийцева, Александр Кудрявцев, Олег Кисилёв, Пётр Брандт, Ирина Мирошниченко, Пола Ракса, Мориин Кервин, Эслинда Нуньес, Траудль Куликовская
Описание: История фотографа, ежедневно идущего на работу в фотоателье через сад, который видоизменяется в зависимости от душевного состояния фотографа. Сад окончательно расцветает, когда в фотоателье приходит девушка – мечта, та самая, которую фотограф мельком видел до этого на улице. Фильм «Сад» - поэтическая баллада о преодолении человеческого одиночества - является уникальным произведением. Во-первых, это единственный профессиональный фильм, снятый в разгар «эпохи застоя», то есть в самые советские времена, вне государственной монополии. Как это удалось в то время Аленикову, это настоящая загадка..

Качество видео: VHSRip
Формат видео: AVI
Видео: 640x496, 25,000 FPS, XviD MPEG-4, 2742 kb/s
Аудио: AC3, 2 ch, 192 kb/s, 48,0 kHz

MediaInfo

General
Complete name : D:\Сад. 1973 VHSRip toledano.avi
Format : AVI
Format/Info : Audio Video Interleave
File size : 937 MiB
Duration : 44 min 31 s
Overall bit rate : 2 943 kb/s
Writing application : VirtualDubMod 1.5.10.3 | www.virtualdub-fr.org || (build 2550/release)
Writing library : VirtualDubMod build 2550/release
Video
ID : 0
Format : MPEG-4 Visual
Format profile : Advanced [email protected]
Format settings : BVOP1
Format settings, BVOP : 1
Format settings, QPel : No
Format settings, GMC : No warppoints
Format settings, Matrix : Default (MPEG)
Codec ID : XVID
Codec ID/Hint : XviD
Duration : 44 min 31 s
Bit rate : 2 742 kb/s
Width : 640 pixels
Height : 496 pixels
Display aspect ratio : 1.290
Frame rate : 25.000 FPS
Color space : YUV
Chroma subsampling : 4:2:0
Bit depth : 8 bits
Scan type : Progressive
Compression mode : Lossy
Bits/(Pixel*Frame) : 0.345
Stream size : 873 MiB (93%)
Writing library : XviD 1.2.1 (UTC 2008-12-04)
Audio
ID : 1
Format : AC-3
Format/Info : Audio Coding 3
Commercial name : Dolby Digital
Codec ID : 2000
Duration : 44 min 31 s
Bit rate mode : Constant
Bit rate : 192 kb/s
Channel(s) : 2 channels
Channel layout : L R
Sampling rate : 48.0 kHz
Frame rate : 31.250 FPS (1536 SPF)
Compression mode : Lossy
Stream size : 61.2 MiB (7%)
Alignment : Split across interleaves
Interleave, duration : 40 ms (1.00 video frame)
Interleave, preload duration : 500 ms
Service kind : Complete Main
Скриншоты:
Яндекс.Метрика