Дом дракона / House of the Dragon [Сезон 1: Серии 1–10 из 10] [2022, фентези, боевик, драма, WEBRip 1080p] DUB (Кравец-Рекордз), MVO (LostFilm) [Локализованный видеоряд]

 

Post 22-Nov-2022 16:25

--Дом дракона / House of the Dragon-- Год выпуска: 2022
Страна: США
Студия: «Good Banana, Home Box Office (HBO)»
Жанр: фентези, боевик, драма
Продолжительность: 10 x ~ 01:02:00
Перевод: Дублированный [Кравец-Рекордз], Многоголосый [LostFilm]
Режиссер: Мигель Сапочник, Грег Яйтанс, Клер Килнер
В ролях: Пэдди Консидайн, Оливия Кук, Эмма Д’Арси, Мэтт Смит, Стив Туссэн, Ив Бест, Рис Иванс, Соноя Мидзуно, Фабьен Франкель, Милли Олкок, …-Описание: Приквел самого масштабного сериала 2010-х «Игра престолов». История разворачивается за 200 лет до событий саги «Песнь льда и пламени». Таргариены правят Семью Королевствами и находятся на грани гражданской войны. Король Визерис к ужасу подданных объявляет своей наследницей дочь Рейниру. Она должна стать первой женщиной, которая взойдёт на Железный трон, но слишком многим это не по нраву. Судьба королевства висит на волоске.- -Качество видео: WEBRip 1080p (Локализованный видеоряд)
Формат видео: MKV
Видеокодек: H.264
Аудиокодек: AC3, ААС
Видео: 1920x1080 (1.80:1), 25.000 fps, MPEG-4 AVC, ~4105 kbps avg
Аудио #1: [RUS] 48.0 kHz, AC3 Dolby Digital, 5.1 (L,C,R,l,r) + LFE ch, ~448.00 kbps avg [DUB – Кравец-Рекордз]
Аудио #2: [RUS] 48.0 kHz, AC3 Dolby Digital, 5.1 (L,C,R,l,r) + LFE ch, ~448.00 kbps avg [MVO – LostFilm]
Аудио #3: [ENG] 48.0 kHz, AAC LC, 2.0 (L R) ch, ~192.00 kbps avg [Оригинал]
Cубтитры: русские, английские
-

MediaInfo:

General
Unique ID                   : 283798429647918235630864250620072334585 (0xD58196E1CC38561B63EED994614A94F9)
Complete name               : F:\Films\House.of.the.Dragon.S01.WEBrip.1080p.Rus.Eng\House.of.the.Dragon.S01E01.WEBrip.1080p.Rus.Eng.mkv
Format                      : Matroska
Format version              : Version 4
File size                   : 2.28 GiB
Duration                    : 1 h 2 min
Overall bit rate            : 5 196 kb/s
Encoded date                : UTC 2022-11-06 16:34:24
Writing application         : mkvmerge v52.0.0 ('Secret For The Mad') 64-bit
Writing library             : libebml v1.4.1 + libmatroska v1.6.2
Video
ID                          : 1
Format                      : AVC
Format/Info                 : Advanced Video Codec
Format profile              : [email protected]
Format settings             : CABAC / 4 Ref Frames
Format settings, CABAC      : Yes
Format settings, Reference  : 4 frames
Codec ID                    : V_MPEG4/ISO/AVC
Duration                    : 1 h 2 min
Bit rate                    : 4 105 kb/s
Nominal bit rate            : 6 000 kb/s
Width                       : 1 920 pixels
Height                      : 1 080 pixels
Display aspect ratio        : 16:9
Frame rate mode             : Constant
Frame rate                  : 25.000 FPS
Color space                 : YUV
Chroma subsampling          : 4:2:0
Bit depth                   : 8 bits
Scan type                   : Progressive
Bits/(Pixel*Frame)          : 0.079
Stream size                 : 1.80 GiB (79%)
Writing library             : x264 core 157
Encoding settings           : cabac=1 / ref=4 / deblock=1:0:0 / analyse=0x3:0x133 / me=umh / subme=10 / psy=1 / psy_rd=1.00:0.00 / mixed_ref=1 / me_range=24 / chroma_me=1 / trellis=2 / 8x8dct=1 / cqm=0 / deadzone=21,11 / fast_pskip=1 / chroma_qp_offset=-2 / threads=34 / lookahead_threads=5 / sliced_threads=0 / nr=0 / decimate=1 / interlaced=0 / bluray_compat=0 / stitchable=1 / constrained_intra=0 / bframes=8 / b_pyramid=2 / b_adapt=2 / b_bias=0 / direct=3 / weightb=1 / open_gop=0 / weightp=2 / keyint=250 / keyint_min=25 / scenecut=40 / intra_refresh=0 / rc_lookahead=100 / rc=abr / mbtree=1 / bitrate=6000 / ratetol=1.0 / qcomp=0.60 / qpmin=0 / qpmax=69 / qpstep=4 / vbv_maxrate=6600 / vbv_bufsize=12000 / nal_hrd=none / filler=0 / ip_ratio=1.40 / aq=1:1.00
Language                    : Russian
Default                     : Yes
Forced                      : No
Audio #1
ID                          : 2
Format                      : E-AC-3
Format/Info                 : Enhanced AC-3
Commercial name             : Dolby Digital Plus
Codec ID                    : A_EAC3
Duration                    : 1 h 2 min
Bit rate mode               : Constant
Bit rate                    : 448 kb/s
Channel(s)                  : 6 channels
Channel layout              : L R C LFE Ls Rs
Sampling rate               : 48.0 kHz
Frame rate                  : 31.250 FPS (1536 SPF)
Compression mode            : Lossy
Stream size                 : 202 MiB (9%)
Title                       : Русский 5.1 (Кравец-Рекордз)
Language                    : Russian
Service kind                : Complete Main
Default                     : No
Forced                      : No
Audio #2
ID                          : 3
Format                      : AC-3
Format/Info                 : Audio Coding 3
Commercial name             : Dolby Digital
Codec ID                    : A_AC3
Duration                    : 1 h 2 min
Bit rate mode               : Constant
Bit rate                    : 448 kb/s
Channel(s)                  : 6 channels
Channel layout              : L R C LFE Ls Rs
Sampling rate               : 48.0 kHz
Frame rate                  : 31.250 FPS (1536 SPF)
Compression mode            : Lossy
Stream size                 : 202 MiB (9%)
Title                       : LostFilm
Language                    : Russian
Service kind                : Complete Main
Default                     : No
Forced                      : No
Audio #3
ID                          : 4
Format                      : AAC LC
Format/Info                 : Advanced Audio Codec Low Complexity
Codec ID                    : A_AAC-2
Duration                    : 1 h 2 min
Bit rate                    : 192 kb/s
Channel(s)                  : 2 channels
Channel layout              : L R
Sampling rate               : 48.0 kHz
Frame rate                  : 46.875 FPS (1024 SPF)
Compression mode            : Lossy
Stream size                 : 86.6 MiB (4%)
Title                       : Английский
Language                    : English
Default                     : No
Forced                      : No
Text #1
ID                          : 5
Format                      : UTF-8
Codec ID                    : S_TEXT/UTF8
Codec ID/Info               : UTF-8 Plain Text
Duration                    : 1 h 0 min
Bit rate                    : 84 b/s
Count of elements           : 582
Stream size                 : 37.2 KiB (0%)
Title                       : Русские
Language                    : Russian
Default                     : No
Forced                      : No
Text #2
ID                          : 6
Format                      : UTF-8
Codec ID                    : S_TEXT/UTF8
Codec ID/Info               : UTF-8 Plain Text
Duration                    : 1 h 0 min
Bit rate                    : 55 b/s
Count of elements           : 723
Stream size                 : 24.5 KiB (0%)
Title                       : Английские
Language                    : English
Default                     : No
Forced                      : No

Список серий:

01. Наследники Дракона - The Heirs of the Dragon
02. Порочный принц - The Rogue Prince
03. Именуемый Вторым - Second of His Name
04. Король Узкого моря - King of the Narrow Sea
05. Мы освещаем путь - We Light the Way
06. Принцесса и королева - The Princess and the Queen
07. Дрифтмарк - Driftmark
08. Лорд Приливов - The Lord of the Tides
09. Зелёный совет - The Green Council
10. Чёрная королева - The Black Queen
-

Скриншоты:

-
Яндекс.Метрика