Чудесный лес / Metsän tarina (Tale of a Forest, Wunder des Waldes) / (Ким Саарнилуото, Вилле Сухонен) [2012, Документальный, природа, флора, фауна, BDRip 720p]

 

Post 21-Nov-2022 11:17

Чудесный лес / Metsän tarina (Tale of a Forest, Wunder des Waldes)
Год выпуска: 2012
Страна: Финляндия, MRP Matila Röhr Productions Oy
Жанр: Документальный, природа, флора, фауна
Продолжительность: 01:15:27
Перевод: Любительский одноголосый
Субтитры: Русские, немецкие, вшитые отключаемые, softsub (SRT)
Режиссер: Ким Саарнилуото, Вилле Сухонен
В ролях: Кристиан Руотанен
Описание: Раскройте для себя все таинства первобытных лесов Северной Финляндии, одних из единственных оставшихся древних лесов в Европе, и познакомьтесь с разнообразием и насыщенностью жизни их обитателей.

Тип релиза: BDRip 720p
Контейнер: MKV
Видео: MPEG-4 AVC, 5000 Кбит/с, 1280x720, 23.976 fps
Аудио 1: Русский: AC3, 6 ch, 384 Кбит/с, 48.0 KHz
Аудио 2: Английский: AC3, 6 ch, 384 Кбит/с, 48.0 KHz
Аудио 3: Немецкий: AC3, 6 ch, 384 Кбит/с, 48.0 KHz

MediaInfo

Complete name : D:\Wunder des Waldes 2012 BDRip 720p Faндорин.mkv
Format : Matroska
Format version : Version 1
File size : 3.24 GiB
Duration : 1h 15mn
Overall bit rate : 6 154 Kbps
Encoded date : UTC 2015-02-22 08:13:07
Writing application : mkvmerge v2.1.0 ('Another Place To Fall') built on Aug 19 2007 13:40:07
Writing library : libebml v0.7.7 + libmatroska v0.8.1
Video
ID : 1
Format : AVC
Format/Info : Advanced Video Codec
Format profile : [email protected]
Format settings, CABAC : Yes
Format settings, ReFrames : 10 frames
Codec ID : V_MPEG4/ISO/AVC
Duration : 1h 15mn
Bit rate : 5 000 Kbps
Width : 1 280 pixels
Height : 720 pixels
Display aspect ratio : 16:9
Frame rate mode : Constant
Frame rate : 23.976 fps
Color space : YUV
Chroma subsampling : 4:2:0
Bit depth : 8 bits
Scan type : Progressive
Bits/(Pixel*Frame) : 0.226
Stream size : 2.57 GiB (79%)
Title : Rip by Fандорин
Writing library : x264 core 130 r2273 b3065e6
Encoding settings : cabac=1 / ref=10 / deblock=1:-3:-3 / analyse=0x3:0x133 / me=umh / subme=10 / psy=1 / psy_rd=1.00:0.10 / mixed_ref=1 / me_range=48 / chroma_me=1 / trellis=2 / 8x8dct=1 / cqm=0 / deadzone=21,11 / fast_pskip=0 / chroma_qp_offset=-3 / threads=6 / lookahead_threads=1 / sliced_threads=0 / nr=0 / decimate=1 / interlaced=0 / bluray_compat=0 / constrained_intra=0 / bframes=7 / b_pyramid=2 / b_adapt=2 / b_bias=0 / direct=3 / weightb=1 / open_gop=0 / weightp=2 / keyint=250 / keyint_min=25 / scenecut=40 / intra_refresh=0 / rc_lookahead=40 / rc=2pass / mbtree=1 / bitrate=5000 / ratetol=1.0 / qcomp=0.60 / qpmin=10 / qpmax=51 / qpstep=4 / cplxblur=20.0 / qblur=0.5 / ip_ratio=1.40 / aq=1:1.00
Default : Yes
Forced : No
Audio #1
ID : 2
Format : AC-3
Format/Info : Audio Coding 3
Mode extension : CM (complete main)
Format settings, Endianness : Big
Codec ID : A_AC3
Duration : 1h 15mn
Bit rate mode : Constant
Bit rate : 384 Kbps
Channel(s) : 6 channels
Channel positions : Front: L C R, Side: L R, LFE
Sampling rate : 48.0 KHz
Bit depth : 16 bits
Compression mode : Lossy
Stream size : 207 MiB (6%)
Language : Russian
Default : Yes
Forced : No
Audio #2
ID : 3
Format : AC-3
Format/Info : Audio Coding 3
Mode extension : CM (complete main)
Format settings, Endianness : Big
Codec ID : A_AC3
Duration : 1h 15mn
Bit rate mode : Constant
Bit rate : 384 Kbps
Channel(s) : 6 channels
Channel positions : Front: L C R, Side: L R, LFE
Sampling rate : 48.0 KHz
Bit depth : 16 bits
Compression mode : Lossy
Stream size : 207 MiB (6%)
Language : English
Default : No
Forced : No
Audio #3
ID : 4
Format : AC-3
Format/Info : Audio Coding 3
Mode extension : CM (complete main)
Format settings, Endianness : Big
Codec ID : A_AC3
Duration : 1h 15mn
Bit rate mode : Constant
Bit rate : 384 Kbps
Channel(s) : 6 channels
Channel positions : Front: L C R, Side: L R, LFE
Sampling rate : 48.0 KHz
Bit depth : 16 bits
Compression mode : Lossy
Stream size : 207 MiB (6%)
Language : German
Default : No
Forced : No
Text #1
ID : 5
Format : UTF-8
Codec ID : S_TEXT/UTF8
Codec ID/Info : UTF-8 Plain Text
Language : Russian
Default : Yes
Forced : No
Text #2
ID : 6
Format : UTF-8
Codec ID : S_TEXT/UTF8
Codec ID/Info : UTF-8 Plain Text
Language : German
Default : No
Forced : No
Скриншоты:
Яндекс.Метрика