Судьба по книге перемен [01-04 из 04] (2022) WEB-DLRip-AVC | КПК

 

Post 15-Nov-2022 16:30

--Судьба по книге перемен [01-04 из 04] (2022) WEB-DLRip-AVC | КПК--Оригинальное название: Судьба по книге перемен
Год выпуска: 2022
Жанр: Детектив
Режиссер: Пётр Амелин
В ролях: Кристина Бабушкина, Павел Трубинер, Ника Ивашкевич, Иван Оганесян, Ольга Кирсанова-Миропольская, Линда Лазарева, Владимир Маслаков, Михаил Морозов, Зоя Буряк, Тина Тарусина, Анастасия Тюнина, Екатерина Проскурина, Виталий Кононов, Валерий Лаппо, Ирина Соколова, Максим Фомин, Сергей Паршин, Наталья Кутасова, Владимир Постников, Михаил Трясоруков, Андрей Мокеев, Николай Калмыков, Лия Кузьмина, Сергей Ноздрин, Станислав Горелов, Владлена Осичкина, Ульяна Никулина, Татьяна Дубинченко--О сериале:
Маня Поливанова, она же писательница Марина Покровская, приезжает в Петербург, чтобы помочь своей тёте Эмилии, временно заменив её помощницу-секретаря. Тётя - известный экстрасенс и ясновидящая и Маня с удовольствием ей помогает, с интересом наблюдая за приходящими клиентами, хотя сама ни в какое ясновидение не верит. Впрочем, категоричный взгляд на тётины таланты Мане скоро придётся изменить. Эмилия будет убита, Маня возьмётся сама отыскать преступника, а предсказания начнут удивительным образом сбываться.--
Страна: Россия
Студия: Кинокомпания "Свэлл Фильм"
Продолжительность: 4 x ~ 00:44:00
Перевод: Не требуется
Файл
Формат: MP4
Качество: WEB-DLRip-AVC
Видео: MPEG-4 AVC (x264), 640x360, ~500 kbps, 25.000 fps
Аудио: AAC LC, 48.0 KHz, 2 ch, 128 Kbps
Субтитры: Нет

Скриншоты

MI

Complete name : F:КИНОSud'ba.Po.Knige.Peremen.S01.2022.WEB-DLRip-AVC.KPK.GFSud'ba.Po.Knige.Peremen.s01e02.2022.WEB-DLRip-AVC.KPK.GF.mp4
Format : MPEG-4
Codec ID : M4V (isom/iso2/avc1)
File size : 199 MiB
Duration : 43 min 56 s
Overall bit rate mode : Variable
Overall bit rate : 634 kb/s
Writing application : Lavf53.19.0
Video
ID : 1
Format : AVC
Format/Info : Advanced Video Codec
Format profile : [email protected]
Format settings, CABAC : Yes
Format settings, RefFrames : 8 frames
Codec ID : avc1
Codec ID/Info : Advanced Video Coding
Duration : 43 min 56 s
Bit rate : 500 kb/s
Width : 640 pixels
Height : 360 pixels
Display aspect ratio : 16:9
Frame rate mode : Constant
Frame rate : 25.000 FPS
Color space : YUV
Chroma subsampling : 4:2:0
Bit depth : 8 bits
Scan type : Progressive
Bits/(Pixel*Frame) : 0.087
Stream size : 157 MiB (79%)
Writing library : x264 core 148 r2638 7599210
Encoding settings : cabac=1 / ref=8 / deblock=1:-1:-1 / analyse=0x3:0x133 / me=umh / subme=10 / psy=1 / psy_rd=1.00:0.00 / mixed_ref=1 / me_range=24 / chroma_me=1 / trellis=2 / 8x8dct=1 / cqm=0 / deadzone=21,11 / fast_pskip=1 / chroma_qp_offset=-2 / threads=6 / lookahead_threads=1 / sliced_threads=0 / nr=0 / decimate=1 / interlaced=0 / bluray_compat=0 / constrained_intra=0 / bframes=8 / b_pyramid=2 / b_adapt=2 / b_bias=0 / direct=3 / weightb=1 / open_gop=0 / weightp=2 / keyint=250 / keyint_min=126 / scenecut=40 / intra_refresh=0 / rc_lookahead=40 / rc=2pass / mbtree=1 / bitrate=500 / ratetol=1.0 / qcomp=0.60 / qpmin=0 / qpmax=69 / qpstep=4 / cplxblur=20.0 / qblur=0.5 / ip_ratio=1.40 / aq=1:1.00
Menus : 3
Audio
ID : 2
Format : AAC
Format/Info : Advanced Audio Codec
Format profile : LC
Codec ID : 40
Duration : 43 min 56 s
Bit rate mode : Variable
Bit rate : 128 kb/s
Channel(s) : 2 channels
Channel positions : Front: L R
Sampling rate : 48.0 kHz
Frame rate : 46.875 FPS (1024 SPF)
Compression mode : Lossy
Stream size : 40.2 MiB (20%)
Default : Yes
Alternate group : 1
Menus : 3
Яндекс.Метрика