Штемп (Геннадий Иванов) [1991, боевик, DVDRip-AVC]

 

Post 29-Oct-2022 17:39

--Штемп-- Год выхода: 1991
Страна: СССР
Студия: «Фора Фильм»
Жанр: боевик
Продолжительность: 01:26:37
Режиссер: Геннадий Иванов
В ролях: Анатолий Хостикоев, Елена Кольчугина, Юлия Соколовская, Гурам Пирцхалава, Валерий Смецкой, Валерий Гатаев, Леонид Кулагин, …-Описание: На воровском жаргоне слово "штемп" означает - большой милицейский начальник, работающий на мафию. Милиция начинает охоту на одну из крупнейших московских криминальных группировок. Информации практически никакой, свидетелей и улик тоже. У инспектора уголовного розыска есть только один выход - внедриться в банду. Ему надо во что бы то ни стало узнать, кто скрывается под личиной одного из его начальников...- -Качество видео: DVDRip-AVC
Формат видео: MKV
Видеокодек: H.264
Аудиокодек: АС3
Видео: 744x572 (1.30:1), 25.000 fps, MPEG-4 AVC, ~2700 kbps avg
Аудио: 48.0 kHz, AC3 Dolby Digital, 3.2 (L,C,R) + LFE ch, ~384.00 kbps avg
Cубтитры: нет
-

MediaInfo:

General
Unique ID                   : 99325980383635048599142065909344362267 (0x4AB97CECC2254011BED0D3D3F925DF1B)
Complete name               : F:\Я и мое\Торренты\Завершенные торренты\Shtemp.1991.DVDRip-AVC.ExKinoRay.mkv
Format                      : Matroska
Format version              : Version 4
File size                   : 1.87 GiB
Duration                    : 1 h 26 min
Overall bit rate            : 3 086 kb/s
Encoded date                : UTC 2022-10-29 10:38:41
Writing application         : mkvmerge v48.0.0 ('Fortress Around Your Heart') 64-bit
Writing library             : libebml v1.4.0 + libmatroska v1.6.0
Video
ID                          : 1
Format                      : AVC
Format/Info                 : Advanced Video Codec
Format profile              : [email protected]
Format settings             : CABAC / 12 Ref Frames
Format settings, CABAC      : Yes
Format settings, Reference  : 12 frames
Codec ID                    : V_MPEG4/ISO/AVC
Duration                    : 1 h 26 min
Bit rate                    : 2 700 kb/s
Width                       : 744 pixels
Height                      : 572 pixels
Display aspect ratio        : 4:3
Frame rate mode             : Constant
Frame rate                  : 25.000 FPS
Color space                 : YUV
Chroma subsampling          : 4:2:0
Bit depth                   : 8 bits
Scan type                   : Progressive
Bits/(Pixel*Frame)          : 0.254
Stream size                 : 1.63 GiB (87%)
Writing library             : x264 core 164 r3081 19856cc
Encoding settings           : cabac=1 / ref=12 / deblock=1:-3:-2 / analyse=0x3:0x133 / me=umh / subme=10 / psy=1 / psy_rd=1.05:0.15 / mixed_ref=1 / me_range=32 / chroma_me=1 / trellis=2 / 8x8dct=1 / cqm=0 / deadzone=21,11 / fast_pskip=0 / chroma_qp_offset=-3 / threads=6 / lookahead_threads=1 / sliced_threads=0 / nr=0 / decimate=0 / interlaced=0 / bluray_compat=0 / constrained_intra=0 / bframes=10 / b_pyramid=2 / b_adapt=2 / b_bias=0 / direct=3 / weightb=1 / open_gop=0 / weightp=2 / keyint=250 / keyint_min=25 / scenecut=40 / intra_refresh=0 / rc=2pass / mbtree=0 / bitrate=2700 / ratetol=1.0 / qcomp=0.60 / qpmin=0 / qpmax=69 / qpstep=4 / cplxblur=20.0 / qblur=0.5 / ip_ratio=1.40 / pb_ratio=1.30 / aq=1:1.00
Language                    : Russian
Default                     : Yes
Forced                      : No
Audio
ID                          : 2
Format                      : AC-3
Format/Info                 : Audio Coding 3
Commercial name             : Dolby Digital
Codec ID                    : A_AC3
Duration                    : 1 h 26 min
Bit rate mode               : Constant
Bit rate                    : 384 kb/s
Channel(s)                  : 6 channels
Channel layout              : L R C LFE Ls Rs
Sampling rate               : 48.0 kHz
Frame rate                  : 31.250 FPS (1536 SPF)
Compression mode            : Lossy
Stream size                 : 238 MiB (12%)
Language                    : Russian
Service kind                : Complete Main
Default                     : Yes
Forced                      : No
Menu
00:00:00.000                : en:Chapter 01
00:08:49.680                : en:Chapter 02
00:15:35.640                : en:Chapter 03
00:22:27.720                : en:Chapter 04
00:31:07.680                : en:Chapter 05
00:36:53.040                : en:Chapter 06
00:41:24.360                : en:Chapter 07
00:47:53.760                : en:Chapter 08
00:54:47.280                : en:Chapter 09
01:05:29.280                : en:Chapter 10
01:15:35.760                : en:Chapter 11
01:23:04.080                : en:Chapter 12
-

Скриншоты:

-
Яндекс.Метрика