Звёздные войны. Эпизод I: Буря в стакане / Star Wars: Episode I: Storm in the Glass (2004) HDRip [H.264/1080p] [AVO]

 

Post 10-Aug-2022 22:53

- Производство: США / Lucasfilm / Студия "Божья искра"
Режиссер: Джордж Лукас
Актеры: Лиам Нисон, Эван МакГрегор, Натали Портман, Джейк Ллойд, Иэн МакДайармид, Пернилла Аугуст, Оливер Форд Дэвис, Хью Куарши, Ахмед Бест
Описание:
На бескрайних просторах Крайне-Северной Галактики резко осложнилась оперативная обстановка. Лица непонятной национальности наладили на секретных планетах производство левого алкоголя в галактических масштабах и готовят акт агрессии против мирной планеты Марабу. Для проведения комплекса оперативно-розыскных мероприятий в адрес выдвигаются два джедая - матёрых сотрудника секты Оперуполномоченных Кришны. Пока при помощи местного чукотского рэппера герои добираются до столицы, злобные буржуины оккупируют мирную планету. Джедаи спасают королеву на угнанном пепелаце, но вынуждены совершить посадку на планете Бабуин. В лавке местного барыги джедай и рэппер знакомятся с местным мальчиком, Аникеем Сковородкером, чей папа, по слухам, тоже был джедаем. Чтобы помочь сослуживцам папаши Аникей принимает участие в безумных гонках на маршрутках. Так и не найдя подход к депутатам галактической думы королева Марабу разрабатывает план операции "Буря в стакане". Два полка подводных оленеводов, окопавшийся в истребителе Аникей - буквально все складывается против временного правительства буржуинов и армии электронных болванов. И только в версии от Божьей искры становится ясно, кто же настоящий отец Аникея.

Возраст: 0+ (для любой зрительской аудитории)
Рейтинг MPAA: PG (рекомендуется присутствие родителей)
Релиз от: OctaneS
Продолжительность: 02:16:11
Качество видео: HDRip
Перевод: Авторский (Божья искра)
Субтитры: Отсутствуют
Видео: AVC/H.264, 1920x1080, ~9992 Kbps
Аудио 1: AAC, 2 ch 124 kbps | Русский (AVO Божья искра, Гоблин)

MediaInfo:

Общее
Полное имя : F:\Раздачи-NNM\Звёздные войны - Буря в стакане (2004) [H.264-1080p].mp4
Формат : MPEG-4
Профиль формата : Base Media
Идентификатор кодека : isom (isom/iso2/avc1/mp41)
Размер файла : 9,63 Гбайт
Продолжительность : 2 ч. 16 м.
Режим общего битрейта : Переменный
Общий поток : 10,1 Мбит/сек
Название фильма : Звёздные войны. Эпизод I - Буря в стакане
Дата кодирования : UTC 2022-08-10 16:03:39
Дата пометки : UTC 2022-08-10 16:03:39
Программа кодирования : Lavf58.12.100
Видео
Идентификатор : 1
Формат : AVC
Формат/Информация : Advanced Video Codec
Профиль формата : [email protected]
Настройки формата : CABAC / 2 Ref Frames
Параметр CABAC формата : Да
Параметр RefFrames формата : 2 кадра
Параметр GOP формата : M=2, N=30
Идентификатор кодека : avc1
Идентификатор кодека/Информация : Advanced Video Coding
Продолжительность : 2 ч. 16 м.
Вид битрейта : Переменный
Битрейт : 9 992 Кбит/сек
Максимальный битрейт : 768 Кбит/сек
Ширина : 1 920 пикселей
Высота : 1 080 пикселей
Соотношение сторон : 16:9
Режим частоты кадров : Переменный
Частота кадров : 23,976 кадра/сек
Минимальная частота кадров : 23,810 кадра/сек
Максимальная частота кадров : 24 000,000 кадров/сек
Частота кадров в оригинале : 25,000 кадров/сек
Цветовое пространство : YUV
Субдискретизация насыщенности : 4:2:0
Битовая глубина : 8 бит
Тип развёртки : Прогрессивная
Бит/(Пиксели*Кадры) : 0.201
Размер потока : 9,51 Гбайт (99%)
Дата кодирования : UTC 2022-08-10 16:03:39
Дата пометки : UTC 2022-08-10 16:03:39
Codec configuration box : avcC
Аудио
Идентификатор : 2
Формат : AAC LC
Формат/Информация : Advanced Audio Codec Low Complexity
Идентификатор кодека : mp4a-40-2
Продолжительность : 2 ч. 16 м.
Вид битрейта : Переменный
Битрейт : 124 Кбит/сек
Максимальный битрейт : 256 Кбит/сек
Каналы : 2 канала
Channel layout : L R
Частота : 48,0 КГц
Частота кадров : 46,875 кадров/сек (1024 SPF)
Метод сжатия : С потерями
Размер потока : 121 Мбайт (1%)
Заголовок : Стерео
Язык : Russian
Default : Да
Alternate group : 1
Дата кодирования : UTC 2022-08-10 16:03:39
Дата пометки : UTC 2022-08-10 16:03:39
Скриншоты:
Яндекс.Метрика