Всё в твоих руках [01-20] (2021) WEBRip-AVC | КПК

 

Post 19-Jun-2022 12:37

--Всё в твоих руках [01-20] (2021) WEBRip-AVC | КПК--Информация о фильме
Оригинальное название: Всё в твоих руках
Год выпуска: 2021
Жанр: Детектив
Режиссер: Роман Иванов
Ведущий: Александр Дуда--О сериале:
Ведущий Александр Дуда и хиромант Алена Орлова на примерах реальных героев и жизненных ситуаций расскажут, как не совершить роковую ошибку, прочитав будущее по линиям на ладонях. Детективный проект «Всё в твоих руках» документально воссоздаст реальные криминальные происшествия и преступления. Случившееся с героями объединяет то, что каждый из них оказался перед выбором и был уверен, что сможет перехитрить судьбу.--Страна: Россия
Студия: Кинокомпания ООО ТК «Символ»
Продолжительность: 20 x ~ 00:23:00
Перевод: Не требуется
Файл
Формат: MP4
Качество: WEBRip-AVC
Видео: MPEG-4 AVC (x264), 640x360, ~500 kbps, 25.000 fps
Аудио: AAC LC, 44.1 KHz, 2 ch, 128 Kbps
Субтитры: Нет

Скриншоты

MI

Complete name : F:КИНОVsyo.V.Tvoih.Rukah.S01.2021.WEBRip-AVC.KPK.GFVsyo.V.Tvoih.Rukah.s01e02.2021.WEBRip-AVC.KPK.GF.mp4
Format : MPEG-4
Codec ID : M4V (isom/iso2/avc1)
File size : 108 MiB
Duration : 23 min 45 s
Overall bit rate mode : Variable
Overall bit rate : 633 kb/s
Writing application : Lavf53.19.0
Video
ID : 1
Format : AVC
Format/Info : Advanced Video Codec
Format profile : [email protected]
Format settings, CABAC : Yes
Format settings, RefFrames : 8 frames
Codec ID : avc1
Codec ID/Info : Advanced Video Coding
Duration : 23 min 45 s
Bit rate : 500 kb/s
Width : 640 pixels
Height : 360 pixels
Display aspect ratio : 16:9
Frame rate mode : Constant
Frame rate : 25.000 FPS
Color space : YUV
Chroma subsampling : 4:2:0
Bit depth : 8 bits
Scan type : Progressive
Bits/(Pixel*Frame) : 0.087
Stream size : 85.0 MiB (79%)
Writing library : x264 core 148 r2638 7599210
Encoding settings : cabac=1 / ref=8 / deblock=1:-1:-1 / analyse=0x3:0x133 / me=umh / subme=10 / psy=1 / psy_rd=1.00:0.00 / mixed_ref=1 / me_range=24 / chroma_me=1 / trellis=2 / 8x8dct=1 / cqm=0 / deadzone=21,11 / fast_pskip=1 / chroma_qp_offset=-2 / threads=6 / lookahead_threads=1 / sliced_threads=0 / nr=0 / decimate=1 / interlaced=0 / bluray_compat=0 / constrained_intra=0 / bframes=8 / b_pyramid=2 / b_adapt=2 / b_bias=0 / direct=3 / weightb=1 / open_gop=0 / weightp=2 / keyint=250 / keyint_min=126 / scenecut=40 / intra_refresh=0 / rc_lookahead=40 / rc=2pass / mbtree=1 / bitrate=500 / ratetol=1.0 / qcomp=0.60 / qpmin=0 / qpmax=69 / qpstep=4 / cplxblur=20.0 / qblur=0.5 / ip_ratio=1.40 / aq=1:1.00
Menus : 3
Audio
ID : 2
Format : AAC
Format/Info : Advanced Audio Codec
Format profile : LC
Codec ID : 40
Duration : 23 min 45 s
Bit rate mode : Variable
Bit rate : 128 kb/s
Channel(s) : 2 channels
Channel positions : Front: L R
Sampling rate : 44.1 kHz
Frame rate : 43.066 FPS (1024 SPF)
Compression mode : Lossy
Stream size : 21.7 MiB (20%)
Default : Yes
Alternate group : 1
Menus : 3
Яндекс.Метрика