Настоящее время - Смотри в оба [27.05] (2022) WEBRip 1080p

 

Post 29-May-2022 16:15

Информация
Оригинальное название: Смотри в оба
Год выпуска: 2022
Жанр: Документальный, аналитика-Описание: Россия: 5 признаков фашистского государства.
Есть Реклама - логотип ТВ канала
Выпущено: Чехия, Спутниковый телеканал "Настоящее время" (Current Time TV) SD
Продолжительность: 00:10:41
Язык: Русский
Субтитры: Русские
Файл
Формат: mp4
Качество: WEBRip 1080p
Видео: MPEG-4 AVC, 1410 Кбит/с, 1920x1080
Аудио: AAC, 2 ch, 128 Кбит/с

Телеканал Настоящее Время

Мы – телеканал "Настоящее Время". Мы делаем яркие видео, рассказываем о важных новостях и злободневных темах, готовим интересные репортажи и передачи – смотрите нас на спутнике, в кабельных сетях и в интернете. Каждый день мы присылаем дайджест всего, что нужно знать, одним письмом, а также превращаем цифры в понятные истории.
Наша миссия – продвигать демократические ценности и институты, а также права человека, предоставляя аудитории то, что не всегда могут обеспечить местные СМИ: новости без цензуры, ответственный обмен мнениями, открытое обсуждение проблем. Телеканал "Настоящее Время" вещает 24 часа в сутки в России, Украине, странах Центральной Азии и Восточной Европы, а также в других регионах.
Редакция Настоящего Времени находится в Праге (Чехия), а журналисты работают в России, Украине, Казахстане, Азербайджане, Беларуси, Грузии, Кыргызстане и других странах.
Настоящее Время – это телеканал, созданный RFE/RL при участии "Голоса Америки".
RFE/RL (Радио Свободная Европа/Радио Свобода) – независимая некоммерческая медиакорпорация, финансируемая с помощью грантов Конгресса США через Агентство по глобальным медиа (USAGM). Представителям американского правительства, включая главу Совета управляющих по вопросам вещания, запрещено вмешиваться в работу наших журналистов.

Тема выпуска

Российские власти и пропаганда охотно клеймят "фашистами" всех несогласных с Кремлем: страны Балтии, Запад в целом и, разумеется, Украину. Предлогом к войне, которую Россия развязала и ведет в этой стране уже 3 месяца, стала пресловутая "денацификация". При этом, на Западе уже не первый год заявляют, что именно Россия и ее общество на данный момент проявляют практически все признаки фашистского государства. Что это за признаки и как они могут относиться к современной России?

MediaInfo

Общее
Полное имя : D:\nastojashhee_vremja_smotri_v_oba_29_05_2022.mp4
Формат : MPEG-4
Профиль формата : Base Media
Идентификатор кодека : isom (isom/iso2/avc1/mp41)
Размер файла : 119 Мбайт
Продолжительность : 10 м. 41 с.
Общий поток : 1 562 Кбит/сек
Название фильма : Россия: 5 признаков фашистского государства
Исполнитель : Настоящее Время
Дата записи : 20220526
Программа кодирования : Lavf58.76.100
Обложка : Yes
Видео
Идентификатор : 1
Формат : AVC
Формат/Информация : Advanced Video Codec
Профиль формата : [email protected]
Настройки формата : CABAC / 3 Ref Frames
Параметр CABAC формата : Да
Параметр RefFrames формата : 3 кадра
Идентификатор кодека : avc1
Идентификатор кодека/Информация : Advanced Video Coding
Продолжительность : 10 м. 41 с.
Битрейт : 1 410 Кбит/сек
Ширина : 1 920 пикселей
Высота : 1 080 пикселей
Соотношение сторон : 16:9
Режим частоты кадров : Постоянный
Частота кадров : 25,000 кадров/сек
Цветовое пространство : YUV
Субдискретизация насыщенности : 4:2:0
Битовая глубина : 8 бит
Тип развёртки : Прогрессивная
Бит/(Пиксели*Кадры) : 0.027
Размер потока : 108 Мбайт (90%)
Заголовок : ISO Media file produced by Google Inc.
Библиотека кодирования : x264 core 155 r2901 7d0ff22
Цветовой диапазон : Limited
Основные цвета : BT.709
Характеристики трансфера : BT.709
Коэффициенты матрицы : BT.709
Menus : 4
Codec configuration box : avcC
Аудио
Идентификатор : 2
Формат : AAC LC
Формат/Информация : Advanced Audio Codec Low Complexity
Идентификатор кодека : mp4a-40-2
Продолжительность : 10 м. 41 с.
Вид битрейта : Постоянный
Битрейт : 128 Кбит/сек
Каналы : 2 канала
Channel layout : L R
Частота : 44,1 КГц
Частота кадров : 43,066 кадра/сек (1024 SPF)
Метод сжатия : С потерями
Размер потока : 9,78 Мбайт (8%)
Заголовок : ISO Media file produced by Google Inc.
Язык : English
Default : Да
Alternate group : 1
Menus : 4
Меню #1
Идентификатор : 4
Идентификатор кодека : text
Продолжительность : 10 м. 41 с.
Язык : English

Скриншоты

Яндекс.Метрика