Лето 1941 года (2022) WEB-DL 1080p от ELEKTRI4KА | IVI

 

Post 07-May-2022 14:52

Информация о фильме
Название: Лето 1941 года
Год выхода: 2022
Жанр: военный, боевик
Режиссер: Бекболат Шекеров
В ролях: Азамат Нигманов, Андрей Олефиренко, Шарифбек Закиров, Алихан Лепесбаев, Андрей Сенькин, Елизавета Шукова, Макпал Касенова, Александр Брухацкий, Валентина Гарцуева, Арсений Врагов
О фильме:
Начало Великой Отечественной войны. Лейтенант Ади Шарипов вместе со своим взводом прикрывают отход штаба полка и остаются в окружении, в тылу врага. Враг загоняет отряд в болото. Страх перед неизвестностью, уныние и сомнения преследуют бойцов, пока они не осознают, что ожидание и бездействие погубят отряд быстрее, чем пули врага.

Выпущено: Казахстан / Медетфильм
Продолжительность: 01:52:55
Озвучивание: Оригинальное | IVI
Файл
Формат: MKV
Качество: WEB-DL 1080p
Видео: MPEG-4 AVC, 5120 Kb/s, 1920x808
Аудио: Russian: AC3, 384 Kb/s ( ch) / AAC, 512 Kb/s (6 ch)
Субтитры: Нет
Дополнительно: Нет

Инфо-файл:

Complete name : Leto.1941.goda.2022.WEB-DL.1080p.ELEKTRI4KA.UNIONGANG.mkv
Format : Matroska
Format version : Version 4
File size : 4.74 GiB
Duration : 1 h 52 min
Overall bit rate : 6 010 kb/s
Movie name : Leto.1941.goda.2022.WEB-DL.1080p.ELEKTRI4KA.UNIONGANG.
Encoded date : UTC 2022-05-06 22:30:10
Writing application : mkvmerge v8.3.0 ('Over the Horizon') 32bit
Writing library : libebml v1.3.1 + libmatroska v1.4.2
Video
ID : 1
Format : AVC
Format/Info : Advanced Video Codec
Format profile : [email protected]
Format settings : CABAC / 4 Ref Frames
Format settings, CABAC : Yes
Format settings, Reference frames : 4 frames
Codec ID : V_MPEG4/ISO/AVC
Duration : 1 h 52 min
Bit rate : 5 120 kb/s
Width : 1 920 pixels
Height : 808 pixels
Display aspect ratio : 2.40:1
Frame rate mode : Constant
Frame rate : 24.000 FPS
Color space : YUV
Chroma subsampling : 4:2:0
Bit depth : 8 bits
Scan type : Progressive
Bits/(Pixel*Frame) : 0.138
Stream size : 4.03 GiB (85%)
Writing library : x264 core 152 r2854 e9a5903
Encoding settings : cabac=1 / ref=3 / deblock=1:0:0 / analyse=0x3:0x113 / me=hex / subme=7 / psy=1 / psy_rd=1.00:0.00 / mixed_ref=1 / me_range=16 / chroma_me=1 / trellis=1 / 8x8dct=1 / cqm=0 / deadzone=21,11 / fast_pskip=1 / chroma_qp_offset=-2 / threads=25 / lookahead_threads=4 / sliced_threads=0 / nr=0 / decimate=1 / interlaced=0 / bluray_compat=0 / constrained_intra=0 / bframes=6 / b_pyramid=2 / b_adapt=1 / b_bias=0 / direct=1 / weightb=1 / open_gop=0 / weightp=2 / keyint=48 / keyint_min=25 / scenecut=0 / intra_refresh=0 / rc_lookahead=40 / rc=2pass / mbtree=1 / bitrate=5120 / ratetol=1.0 / qcomp=0.60 / qpmin=0 / qpmax=69 / qpstep=4 / cplxblur=20.0 / qblur=0.5 / vbv_maxrate=7680 / vbv_bufsize=20480 / nal_hrd=none / filler=0 / ip_ratio=1.40 / aq=1:1.00
Default : Yes
Forced : No
Audio #1
ID : 2
Format : AC-3
Format/Info : Audio Coding 3
Commercial name : Dolby Digital
Codec ID : A_AC3
Duration : 1 h 52 min
Bit rate mode : Constant
Bit rate : 384 kb/s
Channel(s) : 6 channels
Channel layout : L R C LFE Ls Rs
Sampling rate : 48.0 kHz
Frame rate : 31.250 FPS (1536 SPF)
Compression mode : Lossy
Delay relative to video : -43 ms
Stream size : 310 MiB (6%)
Title : Original AC3 (IVI)
Language : Russian
Service kind : Complete Main
Default : Yes
Forced : Yes
Audio #2
ID : 3
Format : AAC LC
Format/Info : Advanced Audio Codec Low Complexity
Codec ID : A_AAC-2
Duration : 1 h 52 min
Bit rate : 512 kb/s
Channel(s) : 6 channels
Channel layout : C L R Ls Rs LFE
Sampling rate : 48.0 kHz
Frame rate : 46.875 FPS (1024 SPF)
Compression mode : Lossy
Delay relative to video : -43 ms
Stream size : 414 MiB (9%)
Title : Original AAC (IVI)
Default : No
Forced : No

Скриншоты

Яндекс.Метрика