Непокоренный / Нескорений (Neskorenyj, The Undefeated) / 2000 / ПМ / DVDRip

 

Post 14-Jan-2022 23:28

-Непокоренный / Нескорений (Neskorenyj, The Undefeated)-Оригинальное название: Нескорений (Neskorenyj, The Undefeated)
Год выпуска: 2000
Жанр: Драма, военный
Выпущено: Украина, Киностудия им. А. Довженко, Студия Олесь-фильм
Продолжительность: 01:43:19
Перевод: Профессиональный многоголосый
Режиссер: Олесь Янчук
В ролях: Григорий Гладий, Виктория Малекторович, Виктор Степанов (I), Светлана Ватаманюк,
Дмитрий Миргородский, Владимир Горянский-1950-й год. Уже давно закончилась Вторая Мировая война, а на территории Западной Украины, в Карпатах, еще продолжают сопротивление вооруженные части и небольшие отряды Украинской Повстанческой Армии, обескровленной борьбой на два фронта: сначала против немецких оккупантов, а затем против большевистской агрессии. Во главе Украинской Повстанческой Армии стоял легендарный генерал-хорунжий Роман Шухевич, оперативный псевдоним - Тарас Чупрынка, судьба которого легла в основу этого фильма. Фильм "Непокоренный" - это не только динамичный сюжет, но и реальная попытка художественными способами донести до зрителя правду о событиях военного и послевоенного времени на Западной Украине.-Качество: DVDRip
Видео: DivX, 1497 Кбит/с, 704x448
Аудио: Русский (AC3, 2 ch, 192 Кбит/с), украинский (AC3, 2 ch, 192 Кбит/с)

Дополнительная информация

Заслужена артистка естрадного мистецтва України Зоряна Коновалець.
Гімн ОУН УПА «Зродились ми великої години» - історичний скарб та пам’ятка легендарного минулого наших предків. У квітні 2015 року за ініціативи Голови Проводу ГО «ЗОЛОТІ ЛЕВИ ЧОРНОЇ СОТНІ» Тараса Мацюка та сприяння побратимів, в Києві на студії звукозапису було записано гімн ОУН ОПА в абсолютно новому аранжуванні та створено відеоролик у виконанні до цього невідомої Зоряни Коновалець.
Старання небайдужих до популяризації національної пам’яті людей, ви можете оцінити прослухавши Гімн ОУН УПА у новому аранжуванні.
ВГО «ЗОЛОТІ ЛЕВИ ЧОРНОЇ СОТНІ» має дві гілки, одна з яких дала поштовх іншій: перша це добровольчий підрозділ «ЧОРНА СОТНЯ», що з часів Революції Гідності, а згодом і війни на Сході, відстоював та захищав східні кордони нашої країни, друга – здійснює свою громадську роботу, як на мирній території, так і у зоні ООС. Заснована Всеукраїнська Громадська Організація «ЗОЛОТІ ЛЕВИ ЧОРНОЇ СОТНІ» у 2013-2014 р.р.
https://www.youtube.com/watch?v=2NoSyZ33hm4

MediaInfo

Общее
Полное имя : D:\Nepokorennyi.2000.DivX.DVDRip.Kinozal.TV.avi
Формат : AVI
Формат/Информация : Audio Video Interleave
Размер файла : 1,37 Гбайт
Продолжительность : 1 ч. 43 м.
Общий поток : 1 895 Кбит/сек
Программа кодирования : VirtualDubMod 1.5.10.2 (build 2540/release)
Библиотека кодирования : VirtualDubMod build 2540/release
Видео
Идентификатор : 0
Формат : MPEG-4 Visual
Настройки формата : BVOP1
Параметр BVOP формата : 1
Параметр QPel формата : Нет
Параметр GMC формата : Без точки перехода
Параметр матрицы формата : Default (MPEG)
Режим смешивания : Сжатый битовый поток
Идентификатор кодека : DX50
Идентификатор кодека/Подсказка : DivX 5
Продолжительность : 1 ч. 43 м.
Битрейт : 1 497 Кбит/сек
Номинальный битрейт : 10 000 Кбит/сек
Ширина : 704 пикселя
Высота : 448 пикселей
Соотношение сторон : 16:10
Частота кадров : 25,000 кадров/сек
Цветовое пространство : YUV
Субдискретизация насыщенности : 4:2:0
Битовая глубина : 8 бит
Тип развёртки : Прогрессивная
Метод сжатия : С потерями
Бит/(Пиксели*Кадры) : 0.190
Размер потока : 1,08 Гбайт (79%)
Библиотека кодирования : DivX 5.2.1 Beta (UTC 2004-09-08)
Аудио #1
Идентификатор : 1
Формат : AC-3
Формат/Информация : Audio Coding 3
Коммерческое название : Dolby Digital
Идентификатор кодека : 2000
Продолжительность : 1 ч. 43 м.
Вид битрейта : Постоянный
Битрейт : 192 Кбит/сек
Каналы : 2 канала
Channel layout : L R
Частота : 48,0 КГц
Частота кадров : 31,250 кадров/сек (1536 SPF)
Метод сжатия : С потерями
Задержка видео : 24 мс.
Размер потока : 142 Мбайт (10%)
Выравнивание : Разделение по промежуткам
Продолжительность промежутка : 40 мс. (1,00 видеокадр)
Время предзагрузки промежутка : 500 мс.
Service kind : Complete Main
Аудио #2
Идентификатор : 2
Формат : AC-3
Формат/Информация : Audio Coding 3
Коммерческое название : Dolby Digital
Идентификатор кодека : 2000
Продолжительность : 1 ч. 43 м.
Вид битрейта : Постоянный
Битрейт : 192 Кбит/сек
Каналы : 2 канала
Channel layout : L R
Частота : 48,0 КГц
Частота кадров : 31,250 кадров/сек (1536 SPF)
Метод сжатия : С потерями
Задержка видео : 24 мс.
Размер потока : 142 Мбайт (10%)
Выравнивание : Разделение по промежуткам
Продолжительность промежутка : 40 мс. (1,00 видеокадр)
Время предзагрузки промежутка : 500 мс.
Service kind : Complete Main

Скриншоты

Яндекс.Метрика