Chopin, Beatrice Rana - Etudes Op.25 - 4 Scherzi (2021) [FLAC|Lossless|image + .cue] <Romantic>

 

Post 10-Jan-2022 14:25

- Chopin, Beatrice Rana - Etudes Op.25 - 4 Scherzi (2021) - Жанр: Romantic
Издание: Warner Classics – 0190296764240
Источник: (релизёр) A-Z
Продолжительность: 01:15:47
Кодек: FLAC
Битрейт: Lossless
Тип рипа: image + .cue
Треклист:
[1]-[12] 12 Études, Op.25
[13] Scherzo No.1 in B minor, Op.20
[14] Scherzo No.2 in B flat minor, Op.31
[15] Scherzo No.3 in C sharp minor, Op.39
[16] Scherzo No.4 in E major, Op.54

Дополнительная информация&#58;

Исполнители:
Beatrice Rana piano

Отчёт EAC&#58;

Exact Audio Copy V1.5 from 20. February 2020
EAC extraction logfile from 4. January 2022, 22:53
Beatrice Rana / Chopin - Études Op.25; 4 Scherzi
Used drive : ASUS SDRW-08U7M-U Adapter: 1 ID: 0
Read mode : Secure
Utilize accurate stream : Yes
Defeat audio cache : Yes
Make use of C2 pointers : No
Read offset correction : 6
Overread into Lead-In and Lead-Out : No
Fill up missing offset samples with silence : Yes
Delete leading and trailing silent blocks : No
Null samples used in CRC calculations : Yes
Used interface : Native Win32 interface for Win NT & 2000
Used output format : User Defined Encoder
Selected bitrate : 128 kBit/s
Quality : High
Add ID3 tag : No
Command line compressor : C:\Program Files (x86)\Exact Audio Copy\Flac\flac.exe
Additional command line options : -V -8 -T "Date=%year%" -T "Genre=%genre%" %source%
TOC of the extracted CD
Track | Start | Length | Start sector | End sector
---------------------------------------------------------
1 | 0:00.00 | 2:41.05 | 0 | 12079
2 | 2:41.05 | 1:31.10 | 12080 | 18914
3 | 4:12.15 | 2:03.67 | 18915 | 28206
4 | 6:16.07 | 1:41.57 | 28207 | 35838
5 | 7:57.64 | 3:50.53 | 35839 | 53141
6 | 11:48.42 | 2:16.57 | 53142 | 63398
7 | 14:05.24 | 5:38.49 | 63399 | 88797
8 | 19:43.73 | 1:09.61 | 88798 | 94033
9 | 20:53.59 | 1:02.22 | 94034 | 98705
10 | 21:56.06 | 3:59.67 | 98706 | 116697
11 | 25:55.73 | 3:55.28 | 116698 | 134350
12 | 29:51.26 | 2:50.40 | 134351 | 147140
13 | 32:41.66 | 11:03.69 | 147141 | 196934
14 | 43:45.60 | 12:00.20 | 196935 | 250954
15 | 55:46.05 | 7:57.69 | 250955 | 286798
16 | 63:43.74 | 12:03.01 | 286799 | 341024
Range status and errors
Selected range
Filename C:\temp\Chopin - Etudes Op.25; 4 Scherzi - Beatrice Rana - 2021\Chopin - Etudes Op.25; 4 Scherzi.wav
Peak level 89.0 %
Extraction speed 5.2 X
Range quality 100.0 %
Test CRC 01C9FF56
Copy CRC 01C9FF56
Copy OK
No errors occurred
AccurateRip summary
Track 1 accurately ripped (confidence 5) [F02E03BB] (AR v2)
Track 2 accurately ripped (confidence 5) [086C8BCB] (AR v2)
Track 3 accurately ripped (confidence 5) [5266AB9D] (AR v2)
Track 4 accurately ripped (confidence 5) [01BB5E8E] (AR v2)
Track 5 accurately ripped (confidence 5) [FBD45FB0] (AR v2)
Track 6 accurately ripped (confidence 5) [B966E1F4] (AR v2)
Track 7 accurately ripped (confidence 5) [FF11D7C5] (AR v2)
Track 8 accurately ripped (confidence 5) [8C8570DA] (AR v2)
Track 9 accurately ripped (confidence 5) [54EE7025] (AR v2)
Track 10 accurately ripped (confidence 5) [E5135D0F] (AR v2)
Track 11 accurately ripped (confidence 5) [2838A76C] (AR v2)
Track 12 accurately ripped (confidence 5) [0F1EA97A] (AR v2)
Track 13 accurately ripped (confidence 5) [3BD9C2BB] (AR v2)
Track 14 accurately ripped (confidence 5) [C912D169] (AR v2)
Track 15 accurately ripped (confidence 5) [FF302FA5] (AR v2)
Track 16 accurately ripped (confidence 5) [FB043C13] (AR v2)
All tracks accurately ripped
End of status report
==== Log checksum 1A1D544041AED3A6494BCD763B631FF1BFDDECD56AC96A0FDEDB34977596977B ====
Время раздачи: 24/7 (круглосуточно) (минимум до появления первых 3-5 скачавших)
Яндекс.Метрика