Ирина Понаровская - Всё лучшее для вас (2021) [AAC|~338 Kbps] <Pop>

 

Post 29-Nov-2021 15:45

- Ирина Понаровская - Всё лучшее для вас (2021) - Жанр: Pop
Продолжительность: 01:15:59
Кодек: AAC
Битрейт: ~338 Kbps
Треклист:
01. Наедине с тобою (4:10)
02. Я такая разная (3:11)
03. Я вольная птица (3:44)
04. У женщины доверчива любовь (4:12)
05. Делим пополам (3:27)
06. Прав был ты (4:29)
07. Признание (3:40)
08. Реквием (5:28)
09. Не говори мне нет (4:42)
10. Капли (4:37)
11. Дай мне! (3:14)
12. Расскажи мне о любви (3:29)
13. Папа (4:04)
14. Не прощу (4:19)
15. Лови момент (3:14)
16. Я жизнь привыкла (3:13)
17. Чужая женщина (4:13)
18. Стану музыкой (3:44)
19. Ирина Понаровская, Юлия Началова - Леди звезда (4:48)

MediaInfo&#58;

Общее
Полное имя : .\Ирина Понаровская (2021-02-12) Всё лучшее для вас\01. Наедине с тобою.m4a
Формат : MPEG-4
Профиль формата : Apple audio with iTunes info
Идентификатор кодека : M4A (M4A /mp42/isom)
Размер файла : 9,91 Мбайт
Продолжительность : 4 м. 9 с.
Режим общего битрейта : Переменный
Общий поток : 333 Кбит/сек
Альбом : Всё лучшее для вас
Альбом/Исполнитель : Ирина Понаровская
Трек : Наедине с тобою
Трек/Положение : 1
Трек/Всего : 19
Исполнитель : Ирина Понаровская
Жанр : Pop
Дата записи : 2021-02-12
Дата кодирования : UTC 2021-11-29 08:48:04
Дата пометки : UTC 2021-11-29 08:48:15
Программа кодирования : qaac 2.72, CoreAudioToolbox 7.10.9.0, AAC-LC Encoder, TVBR q127, Quality 96
ISRC : US7VG2142817
Обложка : Yes
replaygain_track_peak : 1.002953
replaygain_track_gain : -7.71 dB
replaygain_album_peak : 1.035204
replaygain_album_gain : -7.46 dB
LABEL : Ирина Понаровская
BARCODE : 645875207804
Encoding Params : (Binary)
Аудио
Идентификатор : 1
Формат : AAC LC
Формат/Информация : Advanced Audio Codec Low Complexity
Идентификатор кодека : mp4a-40-2
Продолжительность : 4 м. 9 с.
Вид битрейта : Переменный
Битрейт : 328 Кбит/сек
Максимальный битрейт : 378 Кбит/сек
Каналы : 2 канала
Channel layout : L R
Частота : 44,1 КГц
Частота кадров : 43,066 кадра/сек (1024 SPF)
Метод сжатия : С потерями
Размер потока : 9,76 Мбайт (99%)
Дата кодирования : UTC 2021-11-29 08:48:04
Дата пометки : UTC 2021-11-29 08:48:14
Общее
Полное имя : .\Ирина Понаровская (2021-02-12) Всё лучшее для вас\02. Я такая разная.m4a
Формат : MPEG-4
Профиль формата : Apple audio with iTunes info
Идентификатор кодека : M4A (M4A /mp42/isom)
Размер файла : 7,98 Мбайт
Продолжительность : 3 м. 11 с.
Режим общего битрейта : Переменный
Общий поток : 351 Кбит/сек
Альбом : Всё лучшее для вас
Альбом/Исполнитель : Ирина Понаровская
Трек : Я такая разная
Трек/Положение : 2
Трек/Всего : 19
Исполнитель : Ирина Понаровская
Жанр : Pop
Дата записи : 2021-02-12
Дата кодирования : UTC 2021-11-29 08:48:04
Дата пометки : UTC 2021-11-29 08:48:12
Программа кодирования : qaac 2.72, CoreAudioToolbox 7.10.9.0, AAC-LC Encoder, TVBR q127, Quality 96
ISRC : US7VG2142818
Обложка : Yes
replaygain_track_peak : 1.001827
replaygain_track_gain : -9.42 dB
replaygain_album_peak : 1.035204
replaygain_album_gain : -7.46 dB
LABEL : Ирина Понаровская
BARCODE : 645875207804
Encoding Params : (Binary)
Аудио
Идентификатор : 1
Формат : AAC LC
Формат/Информация : Advanced Audio Codec Low Complexity
Идентификатор кодека : mp4a-40-2
Продолжительность : 3 м. 11 с.
Вид битрейта : Переменный
Битрейт : 345 Кбит/сек
Максимальный битрейт : 384 Кбит/сек
Каналы : 2 канала
Channel layout : L R
Частота : 44,1 КГц
Частота кадров : 43,066 кадра/сек (1024 SPF)
Метод сжатия : С потерями
Размер потока : 7,86 Мбайт (98%)
Дата кодирования : UTC 2021-11-29 08:48:04
Дата пометки : UTC 2021-11-29 08:48:12
Общее
Полное имя : .\Ирина Понаровская (2021-02-12) Всё лучшее для вас\03. Я вольная птица.m4a
Формат : MPEG-4
Профиль формата : Apple audio with iTunes info
Идентификатор кодека : M4A (M4A /mp42/isom)
Размер файла : 8,83 Мбайт
Продолжительность : 3 м. 44 с.
Режим общего битрейта : Переменный
Общий поток : 330 Кбит/сек
Альбом : Всё лучшее для вас
Альбом/Исполнитель : Ирина Понаровская
Трек : Я вольная птица
Трек/Положение : 3
Трек/Всего : 19
Исполнитель : Ирина Понаровская
Жанр : Pop
Дата записи : 2021-02-12
Дата кодирования : UTC 2021-11-29 08:48:12
Дата пометки : UTC 2021-11-29 08:48:22
Программа кодирования : qaac 2.72, CoreAudioToolbox 7.10.9.0, AAC-LC Encoder, TVBR q127, Quality 96
ISRC : US7VG2142819
Обложка : Yes
replaygain_track_peak : 0.994180
replaygain_track_gain : -8.69 dB
replaygain_album_peak : 1.035204
replaygain_album_gain : -7.46 dB
LABEL : Ирина Понаровская
BARCODE : 645875207804
Encoding Params : (Binary)
Аудио
Идентификатор : 1
Формат : AAC LC
Формат/Информация : Advanced Audio Codec Low Complexity
Идентификатор кодека : mp4a-40-2
Продолжительность : 3 м. 44 с.
Вид битрейта : Переменный
Битрейт : 325 Кбит/сек
Максимальный битрейт : 405 Кбит/сек
Каналы : 2 канала
Channel layout : L R
Частота : 44,1 КГц
Частота кадров : 43,066 кадра/сек (1024 SPF)
Метод сжатия : С потерями
Размер потока : 8,69 Мбайт (98%)
Дата кодирования : UTC 2021-11-29 08:48:12
Дата пометки : UTC 2021-11-29 08:48:22
Общее
Полное имя : .\Ирина Понаровская (2021-02-12) Всё лучшее для вас\04. У женщины доверчива любовь.m4a
Формат : MPEG-4
Профиль формата : Apple audio with iTunes info
Идентификатор кодека : M4A (M4A /mp42/isom)
Размер файла : 9,23 Мбайт
Продолжительность : 4 м. 11 с.
Режим общего битрейта : Переменный
Общий поток : 307 Кбит/сек
Альбом : Всё лучшее для вас
Альбом/Исполнитель : Ирина Понаровская
Трек : У женщины доверчива любовь
Трек/Положение : 4
Трек/Всего : 19
Исполнитель : Ирина Понаровская
Жанр : Pop
Дата записи : 2021-02-12
Дата кодирования : UTC 2021-11-29 08:48:15
Дата пометки : UTC 2021-11-29 08:48:25
Программа кодирования : qaac 2.72, CoreAudioToolbox 7.10.9.0, AAC-LC Encoder, TVBR q127, Quality 96
ISRC : US7VG2142820
Обложка : Yes
replaygain_track_peak : 0.995547
replaygain_track_gain : -7.07 dB
replaygain_album_peak : 1.035204
replaygain_album_gain : -7.46 dB
LABEL : Ирина Понаровская
BARCODE : 645875207804
Encoding Params : (Binary)
Аудио
Идентификатор : 1
Формат : AAC LC
Формат/Информация : Advanced Audio Codec Low Complexity
Идентификатор кодека : mp4a-40-2
Продолжительность : 4 м. 11 с.
Вид битрейта : Переменный
Битрейт : 302 Кбит/сек
Максимальный битрейт : 369 Кбит/сек
Каналы : 2 канала
Channel layout : L R
Частота : 44,1 КГц
Частота кадров : 43,066 кадра/сек (1024 SPF)
Метод сжатия : С потерями
Размер потока : 9,08 Мбайт (98%)
Дата кодирования : UTC 2021-11-29 08:48:15
Дата пометки : UTC 2021-11-29 08:48:25
Общее
Полное имя : .\Ирина Понаровская (2021-02-12) Всё лучшее для вас\05. Делим пополам.m4a
Формат : MPEG-4
Профиль формата : Apple audio with iTunes info
Идентификатор кодека : M4A (M4A /mp42/isom)
Размер файла : 8,98 Мбайт
Продолжительность : 3 м. 26 с.
Режим общего битрейта : Переменный
Общий поток : 364 Кбит/сек
Альбом : Всё лучшее для вас
Альбом/Исполнитель : Ирина Понаровская
Трек : Делим пополам
Трек/Положение : 5
Трек/Всего : 19
Исполнитель : Ирина Понаровская
Жанр : Pop
Дата записи : 2021-02-12
Дата кодирования : UTC 2021-11-29 08:48:22
Дата пометки : UTC 2021-11-29 08:48:31
Программа кодирования : qaac 2.72, CoreAudioToolbox 7.10.9.0, AAC-LC Encoder, TVBR q127, Quality 96
ISRC : US7VG2142821
Обложка : Yes
replaygain_track_peak : 1.004026
replaygain_track_gain : -4.20 dB
replaygain_album_peak : 1.035204
replaygain_album_gain : -7.46 dB
LABEL : Ирина Понаровская
BARCODE : 645875207804
Encoding Params : (Binary)
Аудио
Идентификатор : 1
Формат : AAC LC
Формат/Информация : Advanced Audio Codec Low Complexity
Идентификатор кодека : mp4a-40-2
Продолжительность : 3 м. 26 с.
Вид битрейта : Переменный
Битрейт : 353 Кбит/сек
Максимальный битрейт : 402 Кбит/сек
Каналы : 2 канала
Channel layout : L R
Частота : 44,1 КГц
Частота кадров : 43,066 кадра/сек (1024 SPF)
Метод сжатия : С потерями
Размер потока : 8,85 Мбайт (99%)
Дата кодирования : UTC 2021-11-29 08:48:22
Дата пометки : UTC 2021-11-29 08:48:31
Общее
Полное имя : .\Ирина Понаровская (2021-02-12) Всё лучшее для вас\06. Прав был ты.m4a
Формат : MPEG-4
Профиль формата : Apple audio with iTunes info
Идентификатор кодека : M4A (M4A /mp42/isom)
Размер файла : 12,0 Мбайт
Продолжительность : 4 м. 29 с.
Режим общего битрейта : Переменный
Общий поток : 375 Кбит/сек
Альбом : Всё лучшее для вас
Альбом/Исполнитель : Ирина Понаровская
Трек : Прав был ты
Трек/Положение : 6
Трек/Всего : 19
Исполнитель : Ирина Понаровская
Жанр : Pop
Дата записи : 2021-02-12
Дата кодирования : UTC 2021-11-29 08:48:26
Дата пометки : UTC 2021-11-29 08:48:37
Программа кодирования : qaac 2.72, CoreAudioToolbox 7.10.9.0, AAC-LC Encoder, TVBR q127, Quality 96
ISRC : US7VG2142822
Обложка : Yes
replaygain_track_peak : 1.002334
replaygain_track_gain : -6.40 dB
replaygain_album_peak : 1.035204
replaygain_album_gain : -7.46 dB
LABEL : Ирина Понаровская
BARCODE : 645875207804
Encoding Params : (Binary)
Аудио
Идентификатор : 1
Формат : AAC LC
Формат/Информация : Advanced Audio Codec Low Complexity
Идентификатор кодека : mp4a-40-2
Продолжительность : 4 м. 29 с.
Вид битрейта : Переменный
Битрейт : 370 Кбит/сек
Максимальный битрейт : 400 Кбит/сек
Каналы : 2 канала
Channel layout : L R
Частота : 44,1 КГц
Частота кадров : 43,066 кадра/сек (1024 SPF)
Метод сжатия : С потерями
Размер потока : 11,9 Мбайт (99%)
Дата кодирования : UTC 2021-11-29 08:48:26
Дата пометки : UTC 2021-11-29 08:48:37
Общее
Полное имя : .\Ирина Понаровская (2021-02-12) Всё лучшее для вас\07. Признание.m4a
Формат : MPEG-4
Профиль формата : Apple audio with iTunes info
Идентификатор кодека : M4A (M4A /mp42/isom)
Размер файла : 8,53 Мбайт
Продолжительность : 3 м. 40 с.
Режим общего битрейта : Переменный
Общий поток : 325 Кбит/сек
Альбом : Всё лучшее для вас
Альбом/Исполнитель : Ирина Понаровская
Трек : Признание
Трек/Положение : 7
Трек/Всего : 19
Исполнитель : Ирина Понаровская
Жанр : Pop
Дата записи : 2021-02-12
Дата кодирования : UTC 2021-11-29 08:48:32
Дата пометки : UTC 2021-11-29 08:48:41
Программа кодирования : qaac 2.72, CoreAudioToolbox 7.10.9.0, AAC-LC Encoder, TVBR q127, Quality 96
ISRC : US7VG2142823
Обложка : Yes
replaygain_track_peak : 0.989104
replaygain_track_gain : -7.53 dB
replaygain_album_peak : 1.035204
replaygain_album_gain : -7.46 dB
LABEL : Ирина Понаровская
BARCODE : 645875207804
Encoding Params : (Binary)
Аудио
Идентификатор : 1
Формат : AAC LC
Формат/Информация : Advanced Audio Codec Low Complexity
Идентификатор кодека : mp4a-40-2
Продолжительность : 3 м. 40 с.
Вид битрейта : Переменный
Битрейт : 320 Кбит/сек
Максимальный битрейт : 371 Кбит/сек
Каналы : 2 канала
Channel layout : L R
Частота : 44,1 КГц
Частота кадров : 43,066 кадра/сек (1024 SPF)
Метод сжатия : С потерями
Размер потока : 8,40 Мбайт (98%)
Дата кодирования : UTC 2021-11-29 08:48:32
Дата пометки : UTC 2021-11-29 08:48:41
Общее
Полное имя : .\Ирина Понаровская (2021-02-12) Всё лучшее для вас\08. Реквием.m4a
Формат : MPEG-4
Профиль формата : Apple audio with iTunes info
Идентификатор кодека : M4A (M4A /mp42/isom)
Размер файла : 13,3 Мбайт
Продолжительность : 5 м. 28 с.
Режим общего битрейта : Переменный
Общий поток : 340 Кбит/сек
Альбом : Всё лучшее для вас
Альбом/Исполнитель : Ирина Понаровская
Трек : Реквием
Трек/Положение : 8
Трек/Всего : 19
Исполнитель : Ирина Понаровская
Жанр : Pop
Дата записи : 2021-02-12
Дата кодирования : UTC 2021-11-29 08:48:38
Дата пометки : UTC 2021-11-29 08:48:53
Программа кодирования : qaac 2.72, CoreAudioToolbox 7.10.9.0, AAC-LC Encoder, TVBR q127, Quality 96
ISRC : US7VG2142824
Обложка : Yes
replaygain_track_peak : 0.985693
replaygain_track_gain : -7.39 dB
replaygain_album_peak : 1.035204
replaygain_album_gain : -7.46 dB
LABEL : Ирина Понаровская
BARCODE : 645875207804
Encoding Params : (Binary)
Аудио
Идентификатор : 1
Формат : AAC LC
Формат/Информация : Advanced Audio Codec Low Complexity
Идентификатор кодека : mp4a-40-2
Продолжительность : 5 м. 28 с.
Вид битрейта : Переменный
Битрейт : 336 Кбит/сек
Максимальный битрейт : 370 Кбит/сек
Каналы : 2 канала
Channel layout : L R
Частота : 44,1 КГц
Частота кадров : 43,066 кадра/сек (1024 SPF)
Метод сжатия : С потерями
Размер потока : 13,1 Мбайт (99%)
Дата кодирования : UTC 2021-11-29 08:48:38
Дата пометки : UTC 2021-11-29 08:48:53
Общее
Полное имя : .\Ирина Понаровская (2021-02-12) Всё лучшее для вас\09. Не говори мне нет.m4a
Формат : MPEG-4
Профиль формата : Apple audio with iTunes info
Идентификатор кодека : M4A (M4A /mp42/isom)
Размер файла : 12,0 Мбайт
Продолжительность : 4 м. 42 с.
Режим общего битрейта : Переменный
Общий поток : 355 Кбит/сек
Альбом : Всё лучшее для вас
Альбом/Исполнитель : Ирина Понаровская
Трек : Не говори мне нет
Трек/Положение : 9
Трек/Всего : 19
Исполнитель : Ирина Понаровская
Жанр : Pop
Дата записи : 2021-02-12
Дата кодирования : UTC 2021-11-29 08:48:42
Дата пометки : UTC 2021-11-29 08:48:55
Программа кодирования : qaac 2.72, CoreAudioToolbox 7.10.9.0, AAC-LC Encoder, TVBR q127, Quality 96
ISRC : US7VG2142825
Обложка : Yes
replaygain_track_peak : 1.017818
replaygain_track_gain : -5.85 dB
replaygain_album_peak : 1.035204
replaygain_album_gain : -7.46 dB
LABEL : Ирина Понаровская
BARCODE : 645875207804
Encoding Params : (Binary)
Аудио
Идентификатор : 1
Формат : AAC LC
Формат/Информация : Advanced Audio Codec Low Complexity
Идентификатор кодека : mp4a-40-2
Продолжительность : 4 м. 42 с.
Вид битрейта : Переменный
Битрейт : 353 Кбит/сек
Максимальный битрейт : 409 Кбит/сек
Каналы : 2 канала
Channel layout : L R
Частота : 44,1 КГц
Частота кадров : 43,066 кадра/сек (1024 SPF)
Метод сжатия : С потерями
Размер потока : 11,8 Мбайт (99%)
Дата кодирования : UTC 2021-11-29 08:48:42
Дата пометки : UTC 2021-11-29 08:48:55
Общее
Полное имя : .\Ирина Понаровская (2021-02-12) Всё лучшее для вас\10. Капли.m4a
Формат : MPEG-4
Профиль формата : Apple audio with iTunes info
Идентификатор кодека : M4A (M4A /mp42/isom)
Размер файла : 11,1 Мбайт
Продолжительность : 4 м. 37 с.
Режим общего битрейта : Переменный
Общий поток : 335 Кбит/сек
Альбом : Всё лучшее для вас
Альбом/Исполнитель : Ирина Понаровская
Трек : Капли
Трек/Положение : 10
Трек/Всего : 19
Исполнитель : Ирина Понаровская
Жанр : Pop
Дата записи : 2021-02-12
Дата кодирования : UTC 2021-11-29 08:48:55
Дата пометки : UTC 2021-11-29 08:49:14
Программа кодирования : qaac 2.72, CoreAudioToolbox 7.10.9.0, AAC-LC Encoder, TVBR q127, Quality 96
ISRC : US7VG2142826
Обложка : Yes
replaygain_track_peak : 0.994090
replaygain_track_gain : -7.46 dB
replaygain_album_peak : 1.035204
replaygain_album_gain : -7.46 dB
LABEL : Ирина Понаровская
BARCODE : 645875207804
Encoding Params : (Binary)
Аудио
Идентификатор : 1
Формат : AAC LC
Формат/Информация : Advanced Audio Codec Low Complexity
Идентификатор кодека : mp4a-40-2
Продолжительность : 4 м. 37 с.
Вид битрейта : Переменный
Битрейт : 330 Кбит/сек
Максимальный битрейт : 390 Кбит/сек
Каналы : 2 канала
Channel layout : L R
Частота : 44,1 КГц
Частота кадров : 43,066 кадра/сек (1024 SPF)
Метод сжатия : С потерями
Размер потока : 10,9 Мбайт (99%)
Дата кодирования : UTC 2021-11-29 08:48:55
Дата пометки : UTC 2021-11-29 08:49:14
Общее
Полное имя : .\Ирина Понаровская (2021-02-12) Всё лучшее для вас\11. Дай мне!.m4a
Формат : MPEG-4
Профиль формата : Apple audio with iTunes info
Идентификатор кодека : M4A (M4A /mp42/isom)
Размер файла : 8,28 Мбайт
Продолжительность : 3 м. 14 с.
Режим общего битрейта : Переменный
Общий поток : 358 Кбит/сек
Альбом : Всё лучшее для вас
Альбом/Исполнитель : Ирина Понаровская
Трек : Дай мне!
Трек/Положение : 11
Трек/Всего : 19
Исполнитель : Ирина Понаровская
Жанр : Pop
Дата записи : 2021-02-12
Дата кодирования : UTC 2021-11-29 08:48:56
Дата пометки : UTC 2021-11-29 08:49:10
Программа кодирования : qaac 2.72, CoreAudioToolbox 7.10.9.0, AAC-LC Encoder, TVBR q127, Quality 96
ISRC : US7VG2142827
Обложка : Yes
replaygain_track_peak : 0.994863
replaygain_track_gain : -7.06 dB
replaygain_album_peak : 1.035204
replaygain_album_gain : -7.46 dB
LABEL : Ирина Понаровская
BARCODE : 645875207804
Encoding Params : (Binary)
Аудио
Идентификатор : 1
Формат : AAC LC
Формат/Информация : Advanced Audio Codec Low Complexity
Идентификатор кодека : mp4a-40-2
Продолжительность : 3 м. 14 с.
Вид битрейта : Переменный
Битрейт : 353 Кбит/сек
Максимальный битрейт : 392 Кбит/сек
Каналы : 2 канала
Channel layout : L R
Частота : 44,1 КГц
Частота кадров : 43,066 кадра/сек (1024 SPF)
Метод сжатия : С потерями
Размер потока : 8,15 Мбайт (98%)
Дата кодирования : UTC 2021-11-29 08:48:56
Дата пометки : UTC 2021-11-29 08:49:10
Общее
Полное имя : .\Ирина Понаровская (2021-02-12) Всё лучшее для вас\12. Расскажи мне о любви.m4a
Формат : MPEG-4
Профиль формата : Apple audio with iTunes info
Идентификатор кодека : M4A (M4A /mp42/isom)
Размер файла : 8,71 Мбайт
Продолжительность : 3 м. 28 с.
Режим общего битрейта : Переменный
Общий поток : 350 Кбит/сек
Альбом : Всё лучшее для вас
Альбом/Исполнитель : Ирина Понаровская
Трек : Расскажи мне о любви
Трек/Положение : 12
Трек/Всего : 19
Исполнитель : Ирина Понаровская
Жанр : Pop
Дата записи : 2021-02-12
Дата кодирования : UTC 2021-11-29 08:49:11
Дата пометки : UTC 2021-11-29 08:49:27
Программа кодирования : qaac 2.72, CoreAudioToolbox 7.10.9.0, AAC-LC Encoder, TVBR q127, Quality 96
ISRC : US7VG2142828
Обложка : Yes
replaygain_track_peak : 1.035204
replaygain_track_gain : -9.69 dB
replaygain_album_peak : 1.035204
replaygain_album_gain : -7.46 dB
LABEL : Ирина Понаровская
BARCODE : 645875207804
Encoding Params : (Binary)
Аудио
Идентификатор : 1
Формат : AAC LC
Формат/Информация : Advanced Audio Codec Low Complexity
Идентификатор кодека : mp4a-40-2
Продолжительность : 3 м. 28 с.
Вид битрейта : Переменный
Битрейт : 345 Кбит/сек
Максимальный битрейт : 416 Кбит/сек
Каналы : 2 канала
Channel layout : L R
Частота : 44,1 КГц
Частота кадров : 43,066 кадра/сек (1024 SPF)
Метод сжатия : С потерями
Размер потока : 8,58 Мбайт (98%)
Дата кодирования : UTC 2021-11-29 08:49:11
Дата пометки : UTC 2021-11-29 08:49:27
Общее
Полное имя : .\Ирина Понаровская (2021-02-12) Всё лучшее для вас\13. Папа.m4a
Формат : MPEG-4
Профиль формата : Apple audio with iTunes info
Идентификатор кодека : M4A (M4A /mp42/isom)
Размер файла : 10,5 Мбайт
Продолжительность : 4 м. 4 с.
Режим общего битрейта : Переменный
Общий поток : 360 Кбит/сек
Альбом : Всё лучшее для вас
Альбом/Исполнитель : Ирина Понаровская
Трек : Папа
Трек/Положение : 13
Трек/Всего : 19
Исполнитель : Ирина Понаровская
Жанр : Pop
Дата записи : 2021-02-12
Дата кодирования : UTC 2021-11-29 08:49:16
Дата пометки : UTC 2021-11-29 08:49:32
Программа кодирования : qaac 2.72, CoreAudioToolbox 7.10.9.0, AAC-LC Encoder, TVBR q127, Quality 96
ISRC : US7VG2142829
Обложка : Yes
replaygain_track_peak : 0.994829
replaygain_track_gain : -8.89 dB
replaygain_album_peak : 1.035204
replaygain_album_gain : -7.46 dB
LABEL : Ирина Понаровская
BARCODE : 645875207804
Encoding Params : (Binary)
Аудио
Идентификатор : 1
Формат : AAC LC
Формат/Информация : Advanced Audio Codec Low Complexity
Идентификатор кодека : mp4a-40-2
Продолжительность : 4 м. 4 с.
Вид битрейта : Переменный
Битрейт : 353 Кбит/сек
Максимальный битрейт : 397 Кбит/сек
Каналы : 2 канала
Channel layout : L R
Частота : 44,1 КГц
Частота кадров : 43,066 кадра/сек (1024 SPF)
Метод сжатия : С потерями
Размер потока : 10,4 Мбайт (99%)
Дата кодирования : UTC 2021-11-29 08:49:16
Дата пометки : UTC 2021-11-29 08:49:32
Общее
Полное имя : .\Ирина Понаровская (2021-02-12) Всё лучшее для вас\14. Не прощу.m4a
Формат : MPEG-4
Профиль формата : Apple audio with iTunes info
Идентификатор кодека : M4A (M4A /mp42/isom)
Размер файла : 10,1 Мбайт
Продолжительность : 4 м. 19 с.
Режим общего битрейта : Переменный
Общий поток : 325 Кбит/сек
Альбом : Всё лучшее для вас
Альбом/Исполнитель : Ирина Понаровская
Трек : Не прощу
Трек/Положение : 14
Трек/Всего : 19
Исполнитель : Ирина Понаровская
Жанр : Pop
Дата записи : 2021-02-12
Дата кодирования : UTC 2021-11-29 08:49:28
Дата пометки : UTC 2021-11-29 08:49:41
Программа кодирования : qaac 2.72, CoreAudioToolbox 7.10.9.0, AAC-LC Encoder, TVBR q127, Quality 96
ISRC : US7VG2142830
Обложка : Yes
replaygain_track_peak : 0.983409
replaygain_track_gain : -7.60 dB
replaygain_album_peak : 1.035204
replaygain_album_gain : -7.46 dB
LABEL : Ирина Понаровская
BARCODE : 645875207804
Encoding Params : (Binary)
Аудио
Идентификатор : 1
Формат : AAC LC
Формат/Информация : Advanced Audio Codec Low Complexity
Идентификатор кодека : mp4a-40-2
Продолжительность : 4 м. 19 с.
Вид битрейта : Переменный
Битрейт : 321 Кбит/сек
Максимальный битрейт : 386 Кбит/сек
Каналы : 2 канала
Channel layout : L R
Частота : 44,1 КГц
Частота кадров : 43,066 кадра/сек (1024 SPF)
Метод сжатия : С потерями
Размер потока : 9,91 Мбайт (99%)
Дата кодирования : UTC 2021-11-29 08:49:28
Дата пометки : UTC 2021-11-29 08:49:41
Общее
Полное имя : .\Ирина Понаровская (2021-02-12) Всё лучшее для вас\15. Лови момент.m4a
Формат : MPEG-4
Профиль формата : Apple audio with iTunes info
Идентификатор кодека : M4A (M4A /mp42/isom)
Размер файла : 7,75 Мбайт
Продолжительность : 3 м. 14 с.
Режим общего битрейта : Переменный
Общий поток : 335 Кбит/сек
Альбом : Всё лучшее для вас
Альбом/Исполнитель : Ирина Понаровская
Трек : Лови момент
Трек/Положение : 15
Трек/Всего : 19
Исполнитель : Ирина Понаровская
Жанр : Pop
Дата записи : 2021-02-12
Дата кодирования : UTC 2021-11-29 08:49:33
Дата пометки : UTC 2021-11-29 08:49:42
Программа кодирования : qaac 2.72, CoreAudioToolbox 7.10.9.0, AAC-LC Encoder, TVBR q127, Quality 96
ISRC : US7VG2142831
Обложка : Yes
replaygain_track_peak : 0.994663
replaygain_track_gain : -5.88 dB
replaygain_album_peak : 1.035204
replaygain_album_gain : -7.46 dB
LABEL : Ирина Понаровская
BARCODE : 645875207804
Encoding Params : (Binary)
Аудио
Идентификатор : 1
Формат : AAC LC
Формат/Информация : Advanced Audio Codec Low Complexity
Идентификатор кодека : mp4a-40-2
Продолжительность : 3 м. 14 с.
Вид битрейта : Переменный
Битрейт : 330 Кбит/сек
Максимальный битрейт : 360 Кбит/сек
Каналы : 2 канала
Channel layout : L R
Частота : 44,1 КГц
Частота кадров : 43,066 кадра/сек (1024 SPF)
Метод сжатия : С потерями
Размер потока : 7,62 Мбайт (98%)
Дата кодирования : UTC 2021-11-29 08:49:33
Дата пометки : UTC 2021-11-29 08:49:42
Общее
Полное имя : .\Ирина Понаровская (2021-02-12) Всё лучшее для вас\16. Я жизнь привыкла.m4a
Формат : MPEG-4
Профиль формата : Apple audio with iTunes info
Идентификатор кодека : M4A (M4A /mp42/isom)
Размер файла : 8,40 Мбайт
Продолжительность : 3 м. 13 с.
Режим общего битрейта : Переменный
Общий поток : 364 Кбит/сек
Альбом : Всё лучшее для вас
Альбом/Исполнитель : Ирина Понаровская
Трек : Я жизнь привыкла
Трек/Положение : 16
Трек/Всего : 19
Исполнитель : Ирина Понаровская
Жанр : Pop
Дата записи : 2021-02-12
Дата кодирования : UTC 2021-11-29 08:49:42
Дата пометки : UTC 2021-11-29 08:49:55
Программа кодирования : qaac 2.72, CoreAudioToolbox 7.10.9.0, AAC-LC Encoder, TVBR q127, Quality 96
ISRC : US7VG2142832
Обложка : Yes
replaygain_track_peak : 0.992185
replaygain_track_gain : -6.13 dB
replaygain_album_peak : 1.035204
replaygain_album_gain : -7.46 dB
LABEL : Ирина Понаровская
BARCODE : 645875207804
Encoding Params : (Binary)
Аудио
Идентификатор : 1
Формат : AAC LC
Формат/Информация : Advanced Audio Codec Low Complexity
Идентификатор кодека : mp4a-40-2
Продолжительность : 3 м. 13 с.
Вид битрейта : Переменный
Битрейт : 353 Кбит/сек
Максимальный битрейт : 383 Кбит/сек
Каналы : 2 канала
Channel layout : L R
Частота : 44,1 КГц
Частота кадров : 43,066 кадра/сек (1024 SPF)
Метод сжатия : С потерями
Размер потока : 8,27 Мбайт (98%)
Дата кодирования : UTC 2021-11-29 08:49:42
Дата пометки : UTC 2021-11-29 08:49:55
Общее
Полное имя : .\Ирина Понаровская (2021-02-12) Всё лучшее для вас\17. Чужая женщина.m4a
Формат : MPEG-4
Профиль формата : Apple audio with iTunes info
Идентификатор кодека : M4A (M4A /mp42/isom)
Размер файла : 10,7 Мбайт
Продолжительность : 4 м. 12 с.
Режим общего битрейта : Переменный
Общий поток : 355 Кбит/сек
Альбом : Всё лучшее для вас
Альбом/Исполнитель : Ирина Понаровская
Трек : Чужая женщина
Трек/Положение : 17
Трек/Всего : 19
Исполнитель : Ирина Понаровская
Жанр : Pop
Дата записи : 2021-02-12
Дата кодирования : UTC 2021-11-29 08:49:44
Дата пометки : UTC 2021-11-29 08:49:59
Программа кодирования : qaac 2.72, CoreAudioToolbox 7.10.9.0, AAC-LC Encoder, TVBR q127, Quality 96
ISRC : US7VG2142833
Обложка : Yes
replaygain_track_peak : 0.975727
replaygain_track_gain : -4.39 dB
replaygain_album_peak : 1.035204
replaygain_album_gain : -7.46 dB
LABEL : Ирина Понаровская
BARCODE : 645875207804
Encoding Params : (Binary)
Аудио
Идентификатор : 1
Формат : AAC LC
Формат/Информация : Advanced Audio Codec Low Complexity
Идентификатор кодека : mp4a-40-2
Продолжительность : 4 м. 12 с.
Вид битрейта : Переменный
Битрейт : 353 Кбит/сек
Максимальный битрейт : 383 Кбит/сек
Каналы : 2 канала
Channel layout : L R
Частота : 44,1 КГц
Частота кадров : 43,066 кадра/сек (1024 SPF)
Метод сжатия : С потерями
Размер потока : 10,6 Мбайт (99%)
Дата кодирования : UTC 2021-11-29 08:49:44
Дата пометки : UTC 2021-11-29 08:49:59
Общее
Полное имя : .\Ирина Понаровская (2021-02-12) Всё лучшее для вас\18. Стану музыкой.m4a
Формат : MPEG-4
Профиль формата : Apple audio with iTunes info
Идентификатор кодека : M4A (M4A /mp42/isom)
Размер файла : 9,57 Мбайт
Продолжительность : 3 м. 44 с.
Режим общего битрейта : Переменный
Общий поток : 358 Кбит/сек
Альбом : Всё лучшее для вас
Альбом/Исполнитель : Ирина Понаровская
Трек : Стану музыкой
Трек/Положение : 18
Трек/Всего : 19
Исполнитель : Ирина Понаровская
Жанр : Pop
Дата записи : 2021-02-12
Дата кодирования : UTC 2021-11-29 08:49:56
Дата пометки : UTC 2021-11-29 08:50:08
Программа кодирования : qaac 2.72, CoreAudioToolbox 7.10.9.0, AAC-LC Encoder, TVBR q127, Quality 96
ISRC : US7VG2142834
Обложка : Yes
replaygain_track_peak : 0.993798
replaygain_track_gain : -8.04 dB
replaygain_album_peak : 1.035204
replaygain_album_gain : -7.46 dB
LABEL : Ирина Понаровская
BARCODE : 645875207804
Encoding Params : (Binary)
Аудио
Идентификатор : 1
Формат : AAC LC
Формат/Информация : Advanced Audio Codec Low Complexity
Идентификатор кодека : mp4a-40-2
Продолжительность : 3 м. 44 с.
Вид битрейта : Переменный
Битрейт : 353 Кбит/сек
Максимальный битрейт : 388 Кбит/сек
Каналы : 2 канала
Channel layout : L R
Частота : 44,1 КГц
Частота кадров : 43,066 кадра/сек (1024 SPF)
Метод сжатия : С потерями
Размер потока : 9,44 Мбайт (99%)
Дата кодирования : UTC 2021-11-29 08:49:56
Дата пометки : UTC 2021-11-29 08:50:08
Общее
Полное имя : .\Ирина Понаровская (2021-02-12) Всё лучшее для вас\19. Ирина Понаровская, Юлия Началова - Леди звезда.m4a
Формат : MPEG-4
Профиль формата : Apple audio with iTunes info
Идентификатор кодека : M4A (M4A /mp42/isom)
Размер файла : 10,6 Мбайт
Продолжительность : 4 м. 47 с.
Режим общего битрейта : Переменный
Общий поток : 309 Кбит/сек
Альбом : Всё лучшее для вас
Альбом/Исполнитель : Ирина Понаровская
Трек : Леди звезда
Трек/Положение : 19
Трек/Всего : 19
Исполнитель : Ирина Понаровская / Юлия Началова
Жанр : Pop
Дата записи : 2021-02-12
Дата кодирования : UTC 2021-11-29 08:50:00
Дата пометки : UTC 2021-11-29 08:50:14
Программа кодирования : qaac 2.72, CoreAudioToolbox 7.10.9.0, AAC-LC Encoder, TVBR q127, Quality 96
ISRC : US7VG2142835
Обложка : Yes
replaygain_track_peak : 0.979480
replaygain_track_gain : -7.50 dB
replaygain_album_peak : 1.035204
replaygain_album_gain : -7.46 dB
LABEL : Ирина Понаровская
BARCODE : 645875207804
Encoding Params : (Binary)
Аудио
Идентификатор : 1
Формат : AAC LC
Формат/Информация : Advanced Audio Codec Low Complexity
Идентификатор кодека : mp4a-40-2
Продолжительность : 4 м. 47 с.
Вид битрейта : Переменный
Битрейт : 304 Кбит/сек
Максимальный битрейт : 333 Кбит/сек
Каналы : 2 канала
Channel layout : L R
Частота : 44,1 КГц
Частота кадров : 43,066 кадра/сек (1024 SPF)
Метод сжатия : С потерями
Размер потока : 10,4 Мбайт (99%)
Дата кодирования : UTC 2021-11-29 08:50:00
Дата пометки : UTC 2021-11-29 08:50:14
Время раздачи: => (минимум до появления первых 3-5 скачавших)

Post 29-Nov-2021 18:47 (after 3 hours)

Топик был перенесен из форума Отечественная поп-музыка (Lossless) в форум Мобильное Аудио
шарик-off
Яндекс.Метрика