Codim.online, Денис Голиков | Программирование Minecraft для 7-12 лет (2020) PCRec

 

Post 07-Dec-2020 17:50

-Codim.online, Денис Голиков | Программирование Minecraft для 7-12 лет (2020) PCRec
- Автор: Денис Голиков
Производство: Codim.online
Жанр: Программирование
    Продолжительность: 10:46:37
    Качество видео: PCRec
    Видео: AVC/H.264, 1280x720-1920x1080, ~1345 Kbps
    Аудио: AAC, 2 ch, ~128 Kbps
Описание:
Если среди детей провести опрос и спросить, какие игры им нравятся больше всего, то очень многие вспомнят о Minecraft. Последние годы этот интереснейший кубомир развивается по всем направлениям, в том числе и в образовательной сфере. В рамках школы программирования для детей Codim.online был разработан курс для детей 7-12 лет по основам Minecraft программирования.
Для старта обучения не нужно дополнительно ничего иметь. Вам потребуется только компьютер или ноутбук с доступом в интернет. В процессе обучения ребенок на примере создания робота-исполнителя познает принципы написания программного кода и развивает алгоритмическое мышление.

На курсе «Программирование Minecraft для 7-12 лет» ребенок научится:

  • Основам программирования.
  • Познакомится с различными видами алгоритмов.
  • Улучшит пространственное воображение для работы в 3D-редакторах.
  • Познакомится с основами электроники.

MediaInfo:

Общее
Полное имя : D:\[Денис Голиков] Курс Программирование Minecraft для 7-12 лет\1 Подземные ходы\Урок 01_02 Скрипт постройки первого тоннеля.mp4
Формат : MPEG-4
Профиль формата : Base Media / Version 2
Идентификатор кодека : mp42 (mp42)
Размер файла : 24,2 Мбайт
Продолжительность : 2 м. 17 с.
Общий поток : 1 480 Кбит/сек
Содиректор : codirector
Студия-производитель : studio
Тип содержимого : Unknown Type
Дата кодирования : UTC 2020-01-30 00:30:42
Дата пометки : UTC 2020-01-30 00:30:42
Видео
Идентификатор : 1
Формат : AVC
Формат/Информация : Advanced Video Codec
Профиль формата : [url=mailto:[email protected]][email protected][/url]
Настройки формата : CABAC / 2 Ref Frames
Параметр CABAC формата : Да
Параметр RefFrames формата : 2 кадра
Параметр GOP формата : M=3, N=25
Режим смешивания : Container [email protected]
Идентификатор кодека : avc1
Идентификатор кодека/Информация : Advanced Video Coding
Продолжительность : 2 м. 17 с.
Битрейт : 1 345 Кбит/сек
Ширина : 1 280 пикселей
Высота : 720 пикселей
Соотношение сторон : 16:9
Режим частоты кадров : Постоянный
Частота кадров : 30,000 кадров/сек
Цветовое пространство : YUV
Субдискретизация насыщенности : 4:2:0
Битовая глубина : 8 бит
Тип развёртки : Прогрессивная
Бит/(Пиксели*Кадры) : 0.049
Размер потока : 22,0 Мбайт (91%)
Язык : English
Codec configuration box : avcC
Аудио
Идентификатор : 2
Формат : AAC LC
Формат/Информация : Advanced Audio Codec Low Complexity
Идентификатор кодека : mp4a-40-2
Продолжительность : 2 м. 16 с.
Вид битрейта : Постоянный
Битрейт : 128 Кбит/сек
Каналы : 2 канала
Channel layout : L R
Частота : 48,0 КГц
Частота кадров : 46,875 кадров/сек (1024 SPF)
Метод сжатия : С потерями
Размер потока : 2,09 Мбайт (9%)
Заголовок : Stereo
Язык : English
Default : Да
Alternate group : 1
Скриншоты:
Яндекс.Метрика